Loading...
Error

Скачать Шутники / Раздолбаи / The Jerky Boys (Джеймс Мелконян / James Melkonian) [1995, комедия, криминал, WEB-DLRip] 2x[AVO] (Санаев, Алексеев) торрент без регистрации

 
Статистика раздачи
Размер:  745 MB   |    Скачан:  120 раз
Сидов:  1  [  0 KB/s  ]  
 
Автор Сообщение

leon030982

[] 

Шутники / Раздолбаи / The Jerky Boys
Год выпуска: 1995
Страна: США
Жанр: комедия, криминал
Продолжительность: 01:21:24
Перевод 1: Авторский (одноголосый, закадровый) Павел Санаев
Перевод 2: Авторский (одноголосый, закадровый) Антон Алексеев
Cубтитры: нет

Режиссер: Джеймс Мелконян / James Melkonian

В ролях: Джон Дж. Бреннан, Камаль Ахмед, Алан Аркин, Уильям Хикки, Алан Норт, Брэд Салливан, Джеймс Лоринз, Сюзанн Шеперд, Винсент Пасторе, Брайан Тарантина

Описание: С мафией шутки плохи. Но парочка нью-йоркских шалопаев — Джонни и Камаль — подзабыли эту простую истину. Мастера телефонных розыгрышей, однажды они подшутили над местным боссом мафии, заставив того поверить, что они — пара крутых громил из Чикаго. Увы, когда обман раскрылся, оказалось, что раздраженный гангстер принял невинный розыгрыш слишком близко к сердцу. Не успели герои поздравить себя с очередным удачным приколом, как за их пустыми головами начинается настоящая охота. Проклиная свое не в меру развитое чувство юмора, герои пускаются в бега…


Качество видео: WEB-DLRip
Формат видео: AVI
Видео кодек: XviD
Аудио кодек: AC3
Видео: 688x384 (1.79:1), 23.976 fps, XviD build 73 ~976 kbps avg, 0.15 bit/pixel
Аудио #1: 48 kHz, AC3 Dolby Digital, 1/0 (C) ch, ~96 kbps - Санаев
Аудио #2: 48 kHz, AC3 Dolby Digital, 2/0 (L/R) ch, ~192 kbps - Алексеев
за дороги спасибо funny77, pavel-vk и TiTBiT
Полное имя : Шутники 1995.avi
Формат : AVI
Формат/Информация : Audio Video Interleave
Размер файла : 745 Мбайт
Продолжительность : 1 ч. 21 м.
Общий поток : 1279 Кбит/сек
Программа кодирования : VirtualDubMod 1.5.10.2 (build 2540/release)
Библиотека кодирования : VirtualDubMod build 2540/release
Видео
Идентификатор : 0
Формат : MPEG-4 Visual
Профиль формата : Advanced Simple@L5
Параметр BVOP формата : 2
Параметр QPel формата : Нет
Параметр GMC формата : Без точки перехода
Параметр матрицы формата : Default (MPEG)
Идентификатор кодека : XVID
Идентификатор кодека/Подсказка : XviD
Продолжительность : 1 ч. 21 м.
Битрейт : 977 Кбит/сек
Ширина : 688 пикселей
Высота : 384 пикселя
Соотношение сторон : 16:9
Частота кадров : 23,976 кадра/сек
Цветовое пространство : YUV
Субдискретизация насыщенности : 4:2:0
Битовая глубина : 8 бит
Тип развёртки : Прогрессивная
Метод сжатия : С потерями
Бит/(Пиксели*Кадры) : 0.154
Размер потока : 569 Мбайт (76%)
Библиотека кодирования : XviD 73
Аудио #1
Идентификатор : 1
Формат : AC-3
Формат/Информация : Audio Coding 3
Расширение режима : CM (complete main)
Параметр Endianness формата : Big
Идентификатор кодека : 2000
Продолжительность : 1 ч. 21 м.
Вид битрейта : Постоянный
Битрейт : 96,0 Кбит/сек
Каналы : 1 канал
Расположение каналов : Front: C
Частота : 48,0 КГц
Битовая глубина : 16 бит
Метод сжатия : С потерями
Размер потока : 55,9 Мбайт (8%)
Выравнивание : Разделение по промежуткам
Продолжительность промежутка : 42 мс. (1,00 видеокадр)
Время предзагрузки промежутка : 500 мс.
Аудио #2
Идентификатор : 2
Формат : AC-3
Формат/Информация : Audio Coding 3
Расширение режима : CM (complete main)
Параметр Endianness формата : Big
Идентификатор кодека : 2000
Продолжительность : 1 ч. 21 м.
Вид битрейта : Постоянный
Битрейт : 192 Кбит/сек
Каналы : 2 канала
Расположение каналов : Front: L R
Частота : 48,0 КГц
Битовая глубина : 16 бит
Метод сжатия : С потерями
Размер потока : 112 Мбайт (15%)
Выравнивание : Разделение по промежуткам
Продолжительность промежутка : 42 мс. (1,00 видеокадр)
Время предзагрузки промежутка : 500 мс.



Скачать Шутники.Раздолбаи.The.Jerky.Boys.(Джеймс.Мелконян.James.Melkonian).[1995.комедия.криминал.WEB-DLRip].2x[AVO].(Санаев.Алексеев).torrent без регистрации
Золото ЗОЛОТАЯ РАЗДАЧА! СКАЧАННОЕ НЕ ЗАСЧИТЫВАЕТСЯ! Золото
Дата: Зарегистрирован   [ Тип: внутренний ] Как тут cкачать?
MAGNET ссылка
MAGNET ссылка


Скачать .torrent

15 KB

Статус: проверено DHT
Скачан: торрент - 120 раз, раздача полностью - 21 раз
Размер: 745 MB
Оценка:  5 (Голосов: 2)
Поблагодарили: 2
Поделиться ссылкой на эту раздачу с друзьями:
В контактеFacebookОдноклассникиTwitterLivejournalМой МирLiveinternet
 

 
Показать сообщения:    


Вы не можете начинать темы
Вы не можете отвечать на сообщения
Вы не можете редактировать свои сообщения
Вы не можете удалять свои сообщения
Вы не можете голосовать в опросах
Вы не можете прикреплять файлы к сообщениям
Вы можете скачивать файлы