Loading...
Error

Скачать Пятница 13 – Часть 5: Новое начало / Friday the 13th: A New Beginning (Дэнни Стейнманн) [1985, ужасы, триллер, детектив, BDRip-AVC] [MVO]+[Оригинал] торрент без регистрации

 
Статистика раздачи
Размер:  2,18 GB   |    Скачан:  132 раза
Сидов:  1  [  0 KB/s  ]  
 
Автор Сообщение

Marsianka

[] 

Информация о фильме
Название: Пятница 13 – Часть 5: Новое начало
Оригинальное название: Friday the 13th: A New Beginning
Год выхода: 1985
Жанр: ужасы, триллер, детектив
Режиссер: Дэнни Стейнманн
В ролях: Мелани Киннаман (Pam Roberts), Джон Шеперд (Tommy Jarvis), Шавар Росс (Reggie), Ричард Янг (Matthew Letter), Марко Ст. Джон (Sheriff Cal Tucker), Джульетт Камминс (Robin), Кэрол Локателл (Ethel Hubbard), Вернон Вашингтон (George), Джон Роберт Диксон (Eddie), Джерри Павлон (Jake), Каски Свейм (Duke)

О фильме:
Вы думали, он умер?! Вы считали, что Вам удалось отправить его на тот свет? Как бы не так! Он отправит на тот свет Вас и получит при этом массу удовольствия! Джейсон Вурхиз вернулся! При нем — его верная хоккейная маска и масса инструментов для изощренного умерщвления тех, кто успел по нему соскучиться. Встречайте свою смерть вместе с Джейсоном!

Если Вы затрудняетесь решить, каким образом умереть, то Джейсон с энтузиазмом предложит Вам свои варианты. Семейное предприятие Вурхизов — бойня «Хрустальное Озеро», начинает работать в усиленном режиме по «элегантному» превращению людей в изуродованные трупы, с учетом новейших передовых технологий! Джейсон будет рад встретиться с Вами, ибо это — новое начало кровавого кошмара под названием «Пятница, 13-ое»!


Страна: США
Продолжительность: 01:32:17
Перевод: Профессиональный многоголосый закадровый (студия Позитив)

Файл
Кодек: h.264
Качество: BDRip-AVC
Видео: MPEG-4, 1024x576, 23.976 fps ~2 745 kbps
1)48 KHz, AC3, 2 ch ~192 Kbps - MVO [Позитив]
2)48 KHz, AC3, 6 ch ~448 Kbps - Original
General
Unique ID : 247489875224209354985028535289678749006 (0xBA30D0F009D9E1B88A22B70CF6E15D4E)
Complete name : M:ВидеоПятница 13-е (1980-2001)Пятница 13 часть 5 - Новое начало.mkv
Format : Matroska
Format version : Version 4 / Version 2
File size : 2.18 GiB
Duration : 1h 32mn
Overall bit rate : 3 387 Kbps
Encoded date : UTC 2014-08-18 00:49:36
Writing application : mkvmerge v7.1.0 ('Good Love') 64bit built on Jul 27 2014 13:06:55
Writing library : libebml v1.3.0 + libmatroska v1.4.1
DURATION : 01:32:17.536000000
NUMBER_OF_FRAMES : 173048
NUMBER_OF_BYTES : 310102016
_STATISTICS_WRITING_APP : mkvmerge v7.1.0 ('Good Love') 64bit built on Jul 27 2014 13:06:55
_STATISTICS_WRITING_DATE_UTC : 2014-08-18 00:49:36
_STATISTICS_TAGS : BPS DURATION NUMBER_OF_FRAMES NUMBER_OF_BYTES

Video
ID : 1
Format : AVC
Format/Info : Advanced Video Codec
Format profile : High@L4.1
Format settings, CABAC : Yes
Format settings, ReFrames : 12 frames
Codec ID : V_MPEG4/ISO/AVC
Duration : 1h 32mn
Bit rate : 2 745 Kbps
Width : 1 024 pixels
Height : 576 pixels
Display aspect ratio : 16:9
Frame rate mode : Constant
Frame rate : 23.976 fps
Color space : YUV
Chroma subsampling : 4:2:0
Bit depth : 8 bits
Scan type : Progressive
Bits/(Pixel*Frame) : 0.194
Stream size : 1.73 GiB (79%)
Title : MPEG-4, 1024x576, 23.976 fps ~2 745 kbps
Writing library : x264 core 130 r2273 b3065e6
Encoding settings : cabac=1 / ref=12 / deblock=1:-2:-2 / analyse=0x3:0x133 / me=umh / subme=11 / psy=1 / psy_rd=1.00:0.15 / mixed_ref=1 / me_range=48 / chroma_me=1 / trellis=2 / 8x8dct=1 / cqm=0 / deadzone=21,11 / fast_pskip=0 / chroma_qp_offset=-3 / threads=3 / lookahead_threads=1 / sliced_threads=0 / nr=0 / decimate=1 / interlaced=0 / bluray_compat=0 / constrained_intra=0 / bframes=14 / b_pyramid=2 / b_adapt=2 / b_bias=0 / direct=3 / weightb=1 / open_gop=0 / weightp=2 / keyint=240 / keyint_min=24 / scenecut=40 / intra_refresh=0 / rc_lookahead=60 / rc=2pass / mbtree=1 / bitrate=2745 / ratetol=1.0 / qcomp=0.60 / qpmin=0 / qpmax=69 / qpstep=4 / cplxblur=20.0 / qblur=0.5 / vbv_maxrate=62500 / vbv_bufsize=78125 / nal_hrd=none / ip_ratio=1.40 / aq=1:1.00
Language : English
Default : Yes
Forced : No
Color primaries : BT.709
Transfer characteristics : BT.709
Matrix coefficients : BT.709

Audio #1
ID : 2
Format : AC-3
Format/Info : Audio Coding 3
Mode extension : CM (complete main)
Format settings, Endianness : Big
Codec ID : A_AC3
Duration : 1h 32mn
Bit rate mode : Constant
Bit rate : 192 Kbps
Channel(s) : 2 channels
Channel positions : Front: L R
Sampling rate : 48.0 KHz
Bit depth : 16 bits
Compression mode : Lossy
Delay relative to video : 950ms
Stream size : 127 MiB (6%)
Title : 48 KHz, AC3, 2 ch ~192 Kbps - MVO [Позитив]
Language : Russian
Default : Yes
Forced : No

Audio #2
ID : 3
Format : AC-3
Format/Info : Audio Coding 3
Mode extension : CM (complete main)
Format settings, Endianness : Big
Codec ID : A_AC3
Duration : 1h 32mn
Bit rate mode : Constant
Bit rate : 448 Kbps
Channel(s) : 6 channels
Channel positions : Front: L C R, Side: L R, LFE
Sampling rate : 48.0 KHz
Bit depth : 16 bits
Compression mode : Lossy
Stream size : 296 MiB (13%)
Title : 48 KHz, AC3, 6 ch ~448 Kbps - Original
Language : English
Default : No
Forced : No

Menu
00:00:00.000 : en:Chapter 1
00:05:46.679 : en:Chapter 2
00:11:51.877 : en:Chapter 3
00:17:51.153 : en:Chapter 4
00:23:06.009 : en:Chapter 5
00:27:47.999 : en:Chapter 6
00:31:18.376 : en:Chapter 7
00:39:05.134 : en:Chapter 8
00:46:29.620 : en:Chapter 9
00:56:10.617 : en:Chapter 10
01:00:16.821 : en:Chapter 11
01:08:06.791 : en:Chapter 12
01:16:05.602 : en:Chapter 13
01:23:17.867 : en:Chapter 14



Скачать Пятница.13.–.Часть.5.Новое.начало.Friday.the.13th.A.New.Beginning.(Дэнни.Стейнманн).[1985.ужасы.триллер.детектив.BDRip-AVC].[MVO]+[Оригинал].torrent без регистрации
Золото ЗОЛОТАЯ РАЗДАЧА! СКАЧАННОЕ НЕ ЗАСЧИТЫВАЕТСЯ! Золото
Дата: Зарегистрирован   [ Тип: внутренний ] Как тут cкачать?
MAGNET ссылка
MAGNET ссылка


Скачать .torrent

12 KB

Статус: проверено DHT
Скачан: торрент - 132 раз, раздача полностью - 2 раз
Размер: 2,18 GB
Оценка:  5 (Голосов: 1)
Поблагодарили: 1
Поделиться ссылкой на эту раздачу с друзьями:
В контактеFacebookОдноклассникиTwitterLivejournalМой МирLiveinternet
 

 
Показать сообщения:    


Вы не можете начинать темы
Вы не можете отвечать на сообщения
Вы не можете редактировать свои сообщения
Вы не можете удалять свои сообщения
Вы не можете голосовать в опросах
Вы не можете прикреплять файлы к сообщениям
Вы можете скачивать файлы