Loading...
Error

Скачать Апокалипсис / Apocalypto (Мэл Гибсон) [2006, боевик, триллер, драма, приключения, BDRip-AVC] [MVO]x2+[DVO]+[AVO (Строев), (Королёв), (Живов), (Рябов)]x4+[Sub]x3 торрент без регистрации

 
Статистика раздачи
Размер:  6,6 GB   |    Скачан:  147 раз
Сидов:  1  [  0 KB/s  ]  
 
Автор Сообщение

Marsianka

[] 

Информация о фильме
Название: Апокалипсис
Оригинальное название: Apocalypto
Год выхода: 2006
Жанр: боевик, триллер, драма, приключения
Режиссер: Мэл Гибсон
В ролях: Руди Янблад, Далия Эрнандез, Джонатан Брюэр, Моррис Бердйеллоухэд, Карлос Эмилио Баез, Рамирез Амилкар, Израэл Контрерас, Израэль Риос, Мария Изабель Диаз, Эспиридион Акоста Кэш

О фильме: В фильме показана жизнь цивилизации майя до прихода испанских конкистадоров: жестокие войны с соседними племенами, человеческие жертвоприношения, загадочные мистические ритуалы. В один день рушится мир индейца по имени Лапа Ягуара. Его деревню захватывает соседнее племя, уничтожая хижины, забирая местных жителей в плен. Его ведут в город, чтобы принести в жертву богам. Перед лицом неминуемой смерти Лапа Ягуара должен побороть свои самые сильные страхи и совершить отчаянный рывок, чтобы спасти то, что ему дорого…



Страна: США
Студия: Icon Entertainmnet International, Icon Productions, Touchstone Pictures
Продолжительность: 02:18:21
Перевод: Профессиональный многоголосый, профессиональный двухголосый, авторский одноголосый (Строев), (Королёв), (Живов), (Рябов)

Файл
Кодек: MPEG-4 AVC
Качество: BDRip-AVC
Видео: 3500 Кбит/с, 1024x554, 23.976 кадр/с

Семпл
Аудио #1: Русский (AC3, 6 ch, 448 Кбит/с) / Профессиональный многоголосый (Позитив)
Аудио #2: Русский (AC3, 6 ch, 448 Кбит/с) / Профессиональный двухголосый (Гланц и Королёва)
Аудио #3: Русский (AC3, 6 ch, 448 Кбит/с) / Авторский одноголосый (Строев)
Аудио #4: Русский (AC3, 6 ch, 448 Кбит/с) / Авторский одноголосый (Королёв)
Аудио #5: Русский (AC3, 6 ch, 448 Кбит/с) / Авторский одноголосый (Живов)
Аудио #6: Русский (AC3, 6 ch, 448 Кбит/с) / Авторский одноголосый (Рябов)
Аудио #7: Украинский (AC3, 2 ch, 192 Кбит/с) / Профессиональный многоголосый
Аудио #8: Язык Майя (AC3, 6 ch, 448 Кбит/с)
Субтитры: Русские (Full, R5), английские (Full), английские (SDH)
Общее
Уникальный идентификатор : 187335510649042220775059494515168131274 (0x8CEF81C82B98FBB78F25D2B365EA38CA)
Полное имя : D:Мои РипыApocalypto.2006.x264.BDRip.AVC.MediaClub.mkv
Формат : Matroska
Версия формата : Version 4 / Version 2
Размер файла : 6,60 Гбайт
Продолжительность : 2 ч. 18 м.
Общий поток : 6830 Кбит/сек
Название фильма : = MediaClub = rip by krakatuq
Дата кодирования : UTC 2014-10-28 11:02:16
Программа кодирования : mkvmerge v6.6.0 ('The Edge Of The In Between') built on Dec 1 2013 17:55:00
Библиотека кодирования : libebml v1.3.0 + libmatroska v1.4.1

Видео
Идентификатор : 1
Формат : AVC
Формат/Информация : Advanced Video Codec
Профиль формата : High@L4.1
Параметр CABAC формата : Да
Параметр ReFrames формата : 9 кадров
Идентификатор кодека : V_MPEG4/ISO/AVC
Продолжительность : 2 ч. 18 м.
Битрейт : 3500 Кбит/сек
Ширина : 1024 пикселя
Высота : 554 пикселя
Соотношение сторон : 1,85:1
Режим частоты кадров : Постоянный
Частота кадров : 23,976 кадра/сек
Цветовое пространство : YUV
Субдискретизация насыщенности : 4:2:0
Битовая глубина : 8 бит
Тип развёртки : Прогрессивная
Бит/(Пиксели*Кадры) : 0.257
Размер потока : 3,25 Гбайт (49%)
Заголовок : Apocalypto.2006.x264.BDRip.AVC.MediaClub
Библиотека кодирования : x264 core 142 r2409+42 04be48a tMod [8-bit@4:2:0 X86]
Настройки программы : cabac=1 / ref=9 / deblock=1:-2:-2 / analyse=0x3:0x133 / me=umh / subme=11 / psy=1 / fade_compensate=0.00 / psy_rd=1.00:0.15 / mixed_ref=1 / me_range=32 / chroma_me=1 / trellis=2 / 8x8dct=1 / cqm=0 / deadzone=21,11 / fast_pskip=0 / chroma_qp_offset=-3 / threads=3 / lookahead_threads=1 / sliced_threads=0 / nr=0 / decimate=0 / interlaced=0 / bluray_compat=0 / constrained_intra=0 / fgo=0 / bframes=9 / b_pyramid=2 / b_adapt=2 / b_bias=0 / direct=3 / weightb=1 / open_gop=0 / weightp=2 / keyint=240 / keyint_min=23 / scenecut=40 / intra_refresh=0 / rc=2pass / mbtree=0 / bitrate=3500 / ratetol=1.0 / qcomp=0.60 / qpmin=0:0:0 / qpmax=69:69:69 / qpstep=4 / cplxblur=20.0 / qblur=0.5 / ip_ratio=1.40 / pb_ratio=1.30 / aq=1:1.00 / aq-sensitivity=10.00 / aq-factor=1.00:1.00:1.00 / aq2=0 / aq3=0
Язык : myn
Default : Да
Forced : Нет

Аудио #1
Идентификатор : 2
Формат : AC-3
Формат/Информация : Audio Coding 3
Расширение режима : CM (complete main)
Параметр Endianness формата : Big
Идентификатор кодека : A_AC3
Продолжительность : 2 ч. 18 м.
Вид битрейта : Постоянный
Битрейт : 448 Кбит/сек
Каналы : 6 каналов
Расположение каналов : Front: L C R, Side: L R, LFE
Частота : 48,0 КГц
Битовая глубина : 16 бит
Метод сжатия : С потерями
Размер потока : 443 Мбайт (7%)
Заголовок : TRACK_01_MVO_RUS
Язык : Russian
Default : Да
Forced : Да

Аудио #2
Идентификатор : 3
Формат : AC-3
Формат/Информация : Audio Coding 3
Расширение режима : CM (complete main)
Параметр Endianness формата : Big
Идентификатор кодека : A_AC3
Продолжительность : 2 ч. 18 м.
Вид битрейта : Постоянный
Битрейт : 448 Кбит/сек
Каналы : 6 каналов
Расположение каналов : Front: L C R, Side: L R, LFE
Частота : 48,0 КГц
Битовая глубина : 16 бит
Метод сжатия : С потерями
Размер потока : 443 Мбайт (7%)
Заголовок : TRACK_02_DVO_RUS
Язык : Russian
Default : Нет
Forced : Нет

Аудио #3
Идентификатор : 4
Формат : AC-3
Формат/Информация : Audio Coding 3
Расширение режима : CM (complete main)
Параметр Endianness формата : Big
Идентификатор кодека : A_AC3
Продолжительность : 2 ч. 18 м.
Вид битрейта : Постоянный
Битрейт : 448 Кбит/сек
Каналы : 6 каналов
Расположение каналов : Front: L C R, Side: L R, LFE
Частота : 48,0 КГц
Битовая глубина : 16 бит
Метод сжатия : С потерями
Размер потока : 443 Мбайт (7%)
Заголовок : TRACK_03_AVO_RUS_STROEV
Язык : Russian
Default : Нет
Forced : Нет

Аудио #4
Идентификатор : 5
Формат : AC-3
Формат/Информация : Audio Coding 3
Расширение режима : CM (complete main)
Параметр Endianness формата : Big
Идентификатор кодека : A_AC3
Продолжительность : 2 ч. 18 м.
Вид битрейта : Постоянный
Битрейт : 448 Кбит/сек
Каналы : 6 каналов
Расположение каналов : Front: L C R, Side: L R, LFE
Частота : 48,0 КГц
Битовая глубина : 16 бит
Метод сжатия : С потерями
Размер потока : 443 Мбайт (7%)
Заголовок : TRACK_04_AVO_RUS_KOROLJОV
Язык : Russian
Default : Нет
Forced : Нет

Аудио #5
Идентификатор : 6
Формат : AC-3
Формат/Информация : Audio Coding 3
Расширение режима : CM (complete main)
Параметр Endianness формата : Big
Идентификатор кодека : A_AC3
Продолжительность : 2 ч. 18 м.
Вид битрейта : Постоянный
Битрейт : 448 Кбит/сек
Каналы : 6 каналов
Расположение каналов : Front: L C R, Side: L R, LFE
Частота : 48,0 КГц
Битовая глубина : 16 бит
Метод сжатия : С потерями
Размер потока : 443 Мбайт (7%)
Заголовок : TRACK_05_AVO_RUS_ZIVOV
Язык : Russian
Default : Нет
Forced : Нет

Аудио #6
Идентификатор : 7
Формат : AC-3
Формат/Информация : Audio Coding 3
Расширение режима : CM (complete main)
Параметр Endianness формата : Big
Идентификатор кодека : A_AC3
Продолжительность : 2 ч. 18 м.
Вид битрейта : Постоянный
Битрейт : 448 Кбит/сек
Каналы : 6 каналов
Расположение каналов : Front: L C R, Side: L R, LFE
Частота : 48,0 КГц
Битовая глубина : 16 бит
Метод сжатия : С потерями
Размер потока : 443 Мбайт (7%)
Заголовок : TRACK_06_AVO_RUS_RYABOV
Язык : Russian
Default : Нет
Forced : Нет

Аудио #7
Идентификатор : 8
Формат : AC-3
Формат/Информация : Audio Coding 3
Расширение режима : CM (complete main)
Параметр Endianness формата : Big
Идентификатор кодека : A_AC3
Продолжительность : 2 ч. 18 м.
Вид битрейта : Постоянный
Битрейт : 192 Кбит/сек
Каналы : 2 канала
Расположение каналов : Front: L R
Частота : 48,0 КГц
Битовая глубина : 16 бит
Метод сжатия : С потерями
Размер потока : 190 Мбайт (3%)
Заголовок : TRACK_07_MVO_UKR
Язык : Ukrainian
Default : Нет
Forced : Нет

Аудио #8
Идентификатор : 9
Формат : AC-3
Формат/Информация : Audio Coding 3
Расширение режима : CM (complete main)
Параметр Endianness формата : Big
Идентификатор кодека : A_AC3
Продолжительность : 2 ч. 18 м.
Вид битрейта : Постоянный
Битрейт : 448 Кбит/сек
Каналы : 6 каналов
Расположение каналов : Front: L C R, Side: L R, LFE
Частота : 48,0 КГц
Битовая глубина : 16 бит
Метод сжатия : С потерями
Размер потока : 443 Мбайт (7%)
Заголовок : TRACK_08_ORIGINAL_MYN
Язык : myn
Default : Нет
Forced : Нет

Текст #1
Идентификатор : 10
Формат : UTF-8
Идентификатор кодека : S_TEXT/UTF8
Идентификатор кодека/Информация : UTF-8 Plain Text
Заголовок : TEXT_01_SUB_RUS
Язык : Russian
Default : Да
Forced : Нет

Текст #2
Идентификатор : 11
Формат : UTF-8
Идентификатор кодека : S_TEXT/UTF8
Идентификатор кодека/Информация : UTF-8 Plain Text
Заголовок : TEXT_02_SUB_ENG_FULL
Язык : English
Default : Нет
Forced : Нет

Текст #3
Идентификатор : 12
Формат : UTF-8
Идентификатор кодека : S_TEXT/UTF8
Идентификатор кодека/Информация : UTF-8 Plain Text
Заголовок : TEXT_03_SUB_ENG_SDH
Язык : English
Default : Нет
Forced : Нет

Меню
00:00:00.000 : en:Chapter 01
00:04:59.590 : en:Chapter 02
00:09:59.890 : en:Chapter 03
00:14:59.857 : en:Chapter 04
00:19:59.990 : en:Chapter 05
00:24:59.122 : en:Chapter 06
00:29:59.923 : en:Chapter 07
00:34:59.555 : en:Chapter 08
00:39:59.480 : en:Chapter 09
00:44:59.822 : en:Chapter 10
00:49:59.454 : en:Chapter 11
00:54:59.379 : en:Chapter 12
00:59:59.595 : en:Chapter 13
01:04:59.645 : en:Chapter 14
01:09:59.320 : en:Chapter 15
01:14:59.328 : en:Chapter 16
01:19:59.628 : en:Chapter 17
01:24:59.803 : en:Chapter 18
01:29:59.394 : en:Chapter 19
01:34:59.360 : en:Chapter 20
01:39:59.785 : en:Chapter 21
01:44:59.543 : en:Chapter 22
01:49:59.467 : en:Chapter 23
01:54:59.517 : en:Chapter 24
01:59:59.650 : en:Chapter 25
02:04:59.158 : en:Chapter 26
02:09:59.583 : en:Chapter 27
02:14:59.091 : en:Chapter 28

x264 log
x264 [info]: frame I:1847 Avg QP:18.20 size:113588
x264 [info]: frame P:56061 Avg QP:21.41 size: 31565
x264 [info]: frame B:141125 Avg QP:23.12 size: 11696
Релиз от:

Автор рипа:



Скачать Апокалипсис.Apocalypto.(Мэл.Гибсон).[2006.боевик.триллер.драма.приключения.BDRip-AVC].[MVO]x2+[DVO]+[AVO.(Строев).(Королёв).(Живов).(Рябов)]x4+[Sub]x3.torrent без регистрации
Золото ЗОЛОТАЯ РАЗДАЧА! СКАЧАННОЕ НЕ ЗАСЧИТЫВАЕТСЯ! Золото
Дата: Зарегистрирован   [ Тип: внутренний ] Как тут cкачать?
MAGNET ссылка
MAGNET ссылка


Скачать .torrent

34 KB

Статус: проверено DHT
Скачан: торрент - 147 раз, раздача полностью - 305 раз
Размер: 6,6 GB
Оценка:  5 (Голосов: 1)
Поблагодарили: 3
Поделиться ссылкой на эту раздачу с друзьями:
В контактеFacebookОдноклассникиTwitterLivejournalМой МирLiveinternet
 

 
Показать сообщения:    


Вы не можете начинать темы
Вы не можете отвечать на сообщения
Вы не можете редактировать свои сообщения
Вы не можете удалять свои сообщения
Вы не можете голосовать в опросах
Вы не можете прикреплять файлы к сообщениям
Вы можете скачивать файлы