Loading...
Error

Скачать Над законом / Above the Law (Эндрю Дэвис) [1988, боевик, триллер, драма, криминал, BDRip-AVC] [Dub]x2+[MVO]x2+[AVO]x6+[Sub]x2 торрент без регистрации

 
Статистика раздачи
Размер:  3,9 GB   |    Скачан:  136 раз
Сидов:  1  [  0 KB/s  ]  
 
Автор Сообщение

Marsianka

[] 

Информация о фильме
Название: Над законом
Оригинальное название: Above the Law
Год выхода: 1988
Жанр: боевик, триллер, драма, криминал
Режиссер: Эндрю Дэвис
В ролях: Стивен Сигал, Пэм Гриер, Генри Сильва, Рон Дин, Даниэль Фаральдо, Шэрон Стоун, Мигель Нино, Николас Кусенко, Джо Греко, Челси Росс, Грегори Алан Уильямс, Джек Уоллес, Метта Дэвис, Джозеф Ф. Косала, Ронни Бэррон, Дэнни Голдринг, Талмус Расулала, Алекс Росс, Тони Флеминг, Майкл Рукер

О фильме:
Чикагский полицейский Нико Таскани наткнулся на крупное дело, настолько крупное, что его отстраняют от службы, а задержанных по делу отпускают. Нико напал на след бывших сотрудников ЦРУ, которые перевозят наркотики и даже готовят политическое убийство. Они считают, что стоят над законом. Но его закон выше…



Страна: США, Гонконг
Студия: Warner Bros. Pictures Co.
Продолжительность: 01:39:16
Перевод: Дублированный, профессиональный (многоголосый закадровый), профессиональный (двухголосый закадровый), авторский (одноголосый закадровый)

Файл
Кодек: h.264
Качество: BDRip-AVC
Видео: 2552 Кбит/с, 1024x576, 23.976 кадр/с
• №1: Русский (AC3, 6 ch, 384 Кбит/с) Дублированный (Мост-Видео)
• №2: Русский (AC3, 2 ch, 192 Кбит/с) Профессиональный многоголосый (Россия / РенТВ)
• №3: Русский (AC3, 2 ch, 192 Кбит/с) Авторский одноголосый (Алексей Михалев)
• №4: Английский (AC3, 6 ch, 384 Кбит/с)
Отдельно:
• №5: Русский (AC3, 2 ch, 192 Кбит/с) Дублированный (Варус-Видео)
• №6: Русский (AC3, 2 ch, 192 Кбит/с) Профессиональный двухголосый (Universal)
• №7: Русский (AC3, 2 ch, 192 Кбит/с) Профессиональный двухголосый (НТВ / ТВ3)
• №8: Русский (AC3, 6 ch, 384 Кбит/с) Авторский одноголосый (Евгений Гаевский)
• №9: Русский (AC3, 2 ch, 192 Кбит/с) Авторский одноголосый (Василий Горчаков)
• №10: Русский (AC3, 2 ch, 192 Кбит/с) Авторский одноголосый (Александр Готлиб)
• №11: Русский (AC3, 2 ch, 192 Кбит/с) Авторский одноголосый (Вартан Дохалов)
• №12: Русский (AC3, 2 ch, 192 Кбит/с) Авторский одноголосый (Юрий Живов)
• №13: Украинский (AC3, 2 ch, 192 Кбит/с) Профессиональный многоголосый (1+1)

Субтитры: Русские, английские

-------------------------------------------------------------------
x264 [info]: frame I:1296 Avg QP:16.22 size:102633
x264 [info]: frame P:35289 Avg QP:19.24 size: 30398
x264 [info]: frame B:106220 Avg QP:20.95 size: 6517
-------------------------------------------------------------------

Полное имя : Above.the.Law.1988.x264.BDRip-AVC.0ptimus.mkv
Формат : Matroska
Версия формата : Version 2
Размер файла : 2,57 Гбайт
Продолжительность : 1 ч. 39 м.
Общий поток : 3704 Кбит/сек
Название фильма : Над законом | Нико | Above the Law [1988] -= BDRip (AVC) by 0ptimus =-
Дата кодирования : UTC 2014-10-25 13:42:58
Программа кодирования : mkvmerge v6.6.0 ('The Edge Of The In Between') built on Dec 1 2013 17:55:00
Библиотека кодирования : libebml v1.3.0 + libmatroska v1.4.1

Видео
Идентификатор : 1
Формат : AVC
Формат/Информация : Advanced Video Codec
Профиль формата : High@L4.1
Параметр CABAC формата : Да
Параметр ReFrames формата : 10 кадров
Идентификатор кодека : V_MPEG4/ISO/AVC
Продолжительность : 1 ч. 39 м.
Битрейт : 2552 Кбит/сек
Ширина : 1024 пикселя
Высота : 576 пикселей
Соотношение сторон : 16:9
Режим частоты кадров : Постоянный
Частота кадров : 23,976 кадра/сек
Цветовое пространство : YUV
Субдискретизация насыщенности : 4:2:0
Битовая глубина : 8 бит
Тип развёртки : Прогрессивная
Бит/(Пиксели*Кадры) : 0.180
Размер потока : 1,72 Гбайт (67%)
Заголовок : Rip by 0ptimus
Библиотека кодирования : x264 core 130 r2273 b3065e6
Настройки программы : cabac=1 / ref=10 / deblock=1:-3:-3 / analyse=0x3:0x113 / me=umh / subme=10 / psy=1 / psy_rd=1.00:0.20 / mixed_ref=1 / me_range=32 / chroma_me=1 / trellis=2 / 8x8dct=1 / cqm=0 / deadzone=21,11 / fast_pskip=0 / chroma_qp_offset=-3 / threads=4 / lookahead_threads=1 / sliced_threads=0 / nr=0 / decimate=0 / interlaced=0 / bluray_compat=0 / constrained_intra=0 / bframes=8 / b_pyramid=2 / b_adapt=2 / b_bias=0 / direct=3 / weightb=1 / open_gop=0 / weightp=2 / keyint=240 / keyint_min=23 / scenecut=40 / intra_refresh=0 / rc_lookahead=40 / rc=2pass / mbtree=0 / bitrate=2552 / ratetol=1.0 / qcomp=0.60 / qpmin=0 / qpmax=69 / qpstep=4 / cplxblur=20.0 / qblur=0.5 / vbv_maxrate=50000 / vbv_bufsize=50000 / nal_hrd=none / ip_ratio=1.40 / pb_ratio=1.30 / aq=1:1.00
Язык : English
Default : Да
Forced : Да

Аудио #1
Идентификатор : 2
Формат : AC-3
Формат/Информация : Audio Coding 3
Расширение режима : CM (complete main)
Параметр Endianness формата : Big
Идентификатор кодека : A_AC3
Продолжительность : 1 ч. 39 м.
Вид битрейта : Постоянный
Битрейт : 384 Кбит/сек
Каналы : 6 каналов
Расположение каналов : Front: L C R, Side: L R, LFE
Частота : 48,0 КГц
Битовая глубина : 16 бит
Метод сжатия : С потерями
Размер потока : 273 Мбайт (10%)
Заголовок : Дублированный [Мост-Видео] AC3 5.1 @ 384 kbps
Язык : Russian
Default : Да
Forced : Да

Аудио #2
Идентификатор : 3
Формат : AC-3
Формат/Информация : Audio Coding 3
Расширение режима : CM (complete main)
Параметр Endianness формата : Big
Идентификатор кодека : A_AC3
Продолжительность : 1 ч. 39 м.
Вид битрейта : Постоянный
Битрейт : 192 Кбит/сек
Каналы : 2 канала
Расположение каналов : Front: L R
Частота : 48,0 КГц
Битовая глубина : 16 бит
Метод сжатия : С потерями
Размер потока : 136 Мбайт (5%)
Заголовок : Многоголосый закадровый [Россия / РенТВ| AC3 2.0 @ 192 kbps
Язык : Russian
Default : Нет
Forced : Нет

Аудио #3
Идентификатор : 4
Формат : AC-3
Формат/Информация : Audio Coding 3
Расширение режима : CM (complete main)
Параметр Endianness формата : Big
Идентификатор кодека : A_AC3
Продолжительность : 1 ч. 39 м.
Вид битрейта : Постоянный
Битрейт : 192 Кбит/сек
Каналы : 2 канала
Расположение каналов : Front: L R
Частота : 48,0 КГц
Битовая глубина : 16 бит
Метод сжатия : С потерями
Размер потока : 136 Мбайт (5%)
Заголовок : Авторский [Алексей Михалев]
Язык : Russian
Default : Нет
Forced : Нет

Аудио #4
Идентификатор : 5
Формат : AC-3
Формат/Информация : Audio Coding 3
Расширение режима : CM (complete main)
Параметр Endianness формата : Big
Идентификатор кодека : A_AC3
Продолжительность : 1 ч. 39 м.
Вид битрейта : Постоянный
Битрейт : 384 Кбит/сек
Каналы : 6 каналов
Расположение каналов : Front: L C R, Side: L R, LFE
Частота : 48,0 КГц
Битовая глубина : 16 бит
Метод сжатия : С потерями
Размер потока : 273 Мбайт (10%)
Заголовок : AC3 5.1 @ 384 kbps
Язык : English
Default : Нет
Forced : Нет

Текст #1
Идентификатор : 6
Формат : UTF-8
Идентификатор кодека : S_TEXT/UTF8
Идентификатор кодека/Информация : UTF-8 Plain Text
Язык : Russian
Default : Нет
Forced : Нет

Текст #2
Идентификатор : 7
Формат : UTF-8
Идентификатор кодека : S_TEXT/UTF8
Идентификатор кодека/Информация : UTF-8 Plain Text
Язык : English
Default : Нет
Forced : Нет

Меню
00:00:00.000 : Master Class (Credits)
00:02:49.086 : Chemical Interrogation
00:06:13.456 : "I can make you disappear"
00:08:45.233 : Christening Day
00:11:51.127 : Jax's Suitor
00:12:47.558 : Bar Blast
00:17:14.909 : Surveillance
00:21:26.785 : Meat Market Mayhem
00:24:59.039 : Nico on Top
00:27:40.075 : Free to Go
00:29:47.411 : Questionable Orders
00:32:07.551 : The Hiding Place
00:36:23.473 : Sunday Mass
00:41:15.264 : The Salvano Connection
00:43:09.629 : Neighborhood Cleanup
00:48:35.329 : Under Arrest
00:52:25.309 : Suspension
00:54:26.263 : Intended Targets
00:57:55.681 : Ambush
01:01:03.201 : "I wanna be #1"
01:05:20.583 : A Killing Team
01:07:59.409 : Priest in Peril
01:14:15.493 : Officer Down
01:16:06.979 : Rapid Transit
01:19:26.512 : Lethal Pride?
01:21:05.736 : Rooftop Heart-to-Heart
01:24:15.676 : Garage Free-for-All
01:30:13.033 : Just for the Fun
01:32:42.265 : Kitchen Cleanup
01:33:54.212 : Personal Thanks
01:35:55.124 : Above the Law No More; End Credits
Релиз от:



Скачать Над.законом.Above.the.Law.(Эндрю.Дэвис).[1988.боевик.триллер.драма.криминал.BDRip-AVC].[Dub]x2+[MVO]x2+[AVO]x6+[Sub]x2.torrent без регистрации
Золото ЗОЛОТАЯ РАЗДАЧА! СКАЧАННОЕ НЕ ЗАСЧИТЫВАЕТСЯ! Золото
Дата: Зарегистрирован   [ Тип: внутренний ] Как тут cкачать?
MAGNET ссылка
MAGNET ссылка


Скачать .torrent

41 KB

Статус: проверено DHT
Скачан: торрент - 136 раз, раздача полностью - 17 раз
Размер: 3,9 GB
Оценка:  - (Голосов: 0)
Поблагодарили: 2
Поделиться ссылкой на эту раздачу с друзьями:
В контактеFacebookОдноклассникиTwitterLivejournalМой МирLiveinternet
 

 
Показать сообщения:    


Вы не можете начинать темы
Вы не можете отвечать на сообщения
Вы не можете редактировать свои сообщения
Вы не можете удалять свои сообщения
Вы не можете голосовать в опросах
Вы не можете прикреплять файлы к сообщениям
Вы можете скачивать файлы