Loading...
Error

Скачать Мятежник / Кровь Героя / The Rebel (Чарли Нгуйен) [2007, экшн, боевик, HDRip] [DVO]+[Sub] торрент без регистрации

 
Статистика раздачи
Размер:  2,18 GB   |    Скачан:  113 раз
Сидов:  1  [  0 KB/s  ]  
 
Автор Сообщение

Marsianka

[] 

Мятежник / Кровь Героя / The Rebel / Dong Mau Anh Hung

Год выпуска: 2007
Страна: Вьетнам
Жанр: экшн, боевик
Продолжительность: 01:44:13
Перевод: Любительский (двухголосый закадровый)
Русские субтитры: есть

Режиссер: Чарли Нгуйен / Charlie Nguyen

В ролях: Джонни Нгуйен, Тан Ван Нго, Дастин Нгуен, Стефани Гэйгер, Дэвид Минетти

Описание: Действие происходит в 1922-ом году, в тогда еще Французском Индокитае, в котором уже начинают назревать повсеместные антифранцузские восстания крестьян. Местные тайные агенты, работающие на правительство, под предводительством жестокого Си (в исполнении еще одного брата из известной актерской династии Нгуенов, Дастина) собираются выследить лидера местных мятежников. В результате нападения на посла, закончившегося кровавой бойней, один из агентов, Ле Ван Куонг, начинает сомневаться в том, что он правильно избрал свой путь, тем более зная, что Си позволил умереть послу, хотя и был осведомлен о плане повстанцев. Вскоре он решается помочь, заключенной в результате этих событий, дочери лидера мятежников сбежать из-под стражи. Естественно, за беглецами устремляется погоня. Ведь коварный Си рассчитывал на такой поворот событий и знает, что отступники приведут его в лагерь повстанцев.



Релиз группы: и

Качество: HDRip
Исходник: The.Rebel.2007.720p.BluRay.x264-FHD
Формат видео: AVI
Видео: 720x400 (1.80:1), 25 fps, XviD MPEG-4 ~2094 kbps avg, 0.29 bit/pixel

Сэмпл
Аудио: 48 kHz, AC3 Dolby Digital, 3/2 (L,C,R,l,r) + LFE ch, ~448 kbps (Русский)
Аудио: 48 kHz, AC3 Dolby Digital, 3/2 (L,C,R,l,r) + LFE ch, ~448 kbps (Вьетнамский)
Формат субтитров: [форсированный(надписи) / полные]softsub (srt)

23
00:03:04,700 --> 00:03:06,700
"Неустрашимый".

24
00:03:06,800 --> 00:03:08,000
Ну и что?

25
00:03:09,000 --> 00:03:10,600
Мы должны понимать,

26
00:03:12,900 --> 00:03:14,800
что все это
может спровоцировать такой конфликт,

27
00:03:14,900 --> 00:03:17,400
что и глазом моргнуть не успеешь,
как этот город сравняют с землёй.

28
00:03:17,400 --> 00:03:20,800
Да ну, повстанцы слабаки.

29
00:03:20,800 --> 00:03:23,900
С таким мягким подходом к повстанцам,

30
00:03:24,000 --> 00:03:26,600
полномасштабной войны не избежать.

31
00:03:26,700 --> 00:03:29,000
Похоже, что они этого и добиваются.

32
00:03:29,100 --> 00:03:31,200
Но "рождённый ползать...

33
00:03:31,200 --> 00:03:33,100
летать не может".

34
00:03:33,200 --> 00:03:35,900
Вот почему нужны такие как ты и я.

35
00:03:35,900 --> 00:03:39,800
Ты, правда, думаешь, что Франция сможет
уничтожить всех повстанцев такими методами?

36
00:03:39,900 --> 00:03:41,600
Как ты говоришь:

37
00:03:41,600 --> 00:03:43,700
"Мы сможем всё, объединившись".

38
00:03:43,700 --> 00:03:46,400
Между нами, ты очень на них похож.

39
00:03:47,800 --> 00:03:50,600
Кыонг, "сладко поёшь".

40
00:03:50,700 --> 00:03:53,100
Может, предложишь повстанцам

41
00:03:53,100 --> 00:03:56,300
с нами объединиться?

Формат : AVI
Формат/Информация : Audio Video Interleave
Профиль формата : OpenDML
Размер файла : 2,18 Гбайт
Продолжительность : 1 ч. 44 м.
Общий поток : 2995 Кбит/сек
Программа кодирования : VirtualDubMod 1.5.10.2 (build 2542/release)
Библиотека кодирования : VirtualDubMod build 2542/release

Видео
Идентификатор : 0
Формат : MPEG-4 Visual
Профиль формата : Advanced Simple@L5
Параметр BVOP формата : 2
Параметр QPel формата : Нет
Параметр GMC формата : Без точки перехода
Параметр матрицы формата : Default (MPEG)
Идентификатор кодека : XVID
Идентификатор кодека/Подсказка : XviD
Продолжительность : 1 ч. 44 м.
Битрейт : 2083 Кбит/сек
Ширина : 720 пикселей
Высота : 400 пикселей
Соотношение сторон : 16:9
Частота кадров : 25,000 кадров/сек
Цветовое пространство : YUV
Субдискретизация насыщенности : 4:2:0
Битовая глубина : 8 бит
Тип развёртки : Прогрессивная
Метод сжатия : С потерями
Бит/(Пиксели*Кадры) : 0.289
Размер потока : 1,52 Гбайт (70%)
Библиотека кодирования : XviD 1.2.1 (UTC 2008-12-04)

Аудио #1
Идентификатор : 1
Формат : AC-3
Формат/Информация : Audio Coding 3
Расширение режима : CM (complete main)
Параметр Endianness формата : Big
Идентификатор кодека : 2000
Продолжительность : 1 ч. 43 м.
Вид битрейта : Постоянный
Битрейт : 448 Кбит/сек
Каналы : 6 каналов
Расположение каналов : Front: L C R, Side: L R, LFE
Частота : 48,0 КГц
Битовая глубина : 16 бит
Метод сжатия : С потерями
Размер потока : 333 Мбайт (15%)
Выравнивание : Разделение по промежуткам
Продолжительность промежутка : 40 мс. (1,00 видеокадр)
Время предзагрузки промежутка : 500 мс.

Аудио #2
Идентификатор : 2
Формат : AC-3
Формат/Информация : Audio Coding 3
Расширение режима : CM (complete main)
Параметр Endianness формата : Big
Идентификатор кодека : 2000
Продолжительность : 1 ч. 43 м.
Вид битрейта : Постоянный
Битрейт : 448 Кбит/сек
Каналы : 6 каналов
Расположение каналов : Front: L C R, Side: L R, LFE
Частота : 48,0 КГц
Битовая глубина : 16 бит
Метод сжатия : С потерями
Размер потока : 333 Мбайт (15%)
Выравнивание : Разделение по промежуткам
Продолжительность промежутка : 40 мс. (1,00 видеокадр)
Время предзагрузки промежутка : 500 мс.



Скачать Мятежник.Кровь.Героя.The.Rebel.(Чарли.Нгуйен).[2007.экшн.боевик.HDRip].[DVO]+[Sub].torrent без регистрации
Золото ЗОЛОТАЯ РАЗДАЧА! СКАЧАННОЕ НЕ ЗАСЧИТЫВАЕТСЯ! Золото
Дата: Зарегистрирован   [ Тип: внутренний ] Как тут cкачать?
MAGNET ссылка
MAGNET ссылка


Скачать .torrent

12 KB

Статус: проверено DHT
Скачан: торрент - 113 раз, раздача полностью - 7 раз
Размер: 2,18 GB
Оценка:  - (Голосов: 0)
Поблагодарили: 1
Поделиться ссылкой на эту раздачу с друзьями:
В контактеFacebookОдноклассникиTwitterLivejournalМой МирLiveinternet
 

 
Показать сообщения:    


Вы не можете начинать темы
Вы не можете отвечать на сообщения
Вы не можете редактировать свои сообщения
Вы не можете удалять свои сообщения
Вы не можете голосовать в опросах
Вы не можете прикреплять файлы к сообщениям
Вы можете скачивать файлы