Loading...
Error

Скачать Следопыт / Pathfinder (Маркус Ниспел) [2007, боевик, триллер, драма, приключения, BDRip-AVC] [Режиссерская версия / Director's Cut] [Dub]+[MVO]x+[DVO]+[AVO (Живов, Немахов)]+[Sub]x2 торрент без регистрации

 
Статистика раздачи
Размер:  5,11 GB   |    Скачан:  159 раз
Сидов:  1  [  0 KB/s  ]  
 
Автор Сообщение

Marsianka

[] 

Информация о фильме
Название: Следопыт
Оригинальное название: Pathfinder
Год выхода: 2007
Жанр: боевик, триллер, драма, приключения
Режиссер: Маркус Ниспел
В ролях: Карл Урбан, Мун Бладгуд, Расселл Минз, Клэнси Браун, Джей Таваре, Натаниэль Аркан, Ральф Мёллер, Кевин Лоринг, Уэйн Чарльз Бэйкер, Мишель Траш, Николь Муньос, Беркли Даффилд, Рэй Дж. Тандерчайлд, Дуан Ховард, Брэндон Оакес, Стефани Матиас, Джон Манн, Кен Джонс, Майк Допуд, Вуди Джеффрис, Андре Тодорович, Марсель Пети

О фильме: Северная Америка. 600 лет до прибытия Колумба. Викинги вторгаются на земли коренных жителей этих мест — индейцев. После столкновения двух племен, мальчик викингов остается один и попадает в лагерь врага. Его принимают в племя и воспитывают. Через 15 лет юный герой вновь встречается со своим некогда родным народом, но последствия этой встречи оказываются трагичными для приютившего его племени и герой принимает решение поставить точку в кровопролитной войне.....



Страна: США
Студия: 20th Century Fox Film Corporation, Dune Entertainment, Major Studio Partners, Phoenix Pictures
Продолжительность: 01:47:11
Перевод: Дублированный, профессиональный многоголосый, профессиональный двухголосый, авторский одноголосый (Живов), (Немахов)

Файл
Кодек: MPEG-4 AVC
Качество: BDRip-AVC
Видео: 3500 Кбит/с, 1024x426, 23.976 кадр/с

Семпл
Аудио #1: Русский (AC3, 6 ch, 448 Кбит/с) / Дублированный (с врезками двухголоски Гланца и Королёвой)
Аудио #2: Русский (AC3, 6 ch, 448 Кбит/с) / Профессиональный многоголосый (BD CEE)
Аудио #3: Русский (AC3, 6 ch, 448 Кбит/с) / Профессиональный многоголосый (Киномания)
Аудио #4: Русский (AC3, 6 ch, 448 Кбит/с) / Профессиональный двухголосый (Гланц и Королева)
Аудио #5: Русский (AC3, 6 ch, 448 Кбит/с) / Авторский одноголосый (Живов)
Аудио #6: Русский (AC3, 6 ch, 448 Кбит/с) / Авторский одноголосый (Немахов)
Аудио #7: Украинский (AC3, 2 ch, 192 Кбит/с) / Дублированный (1+1)
Аудио #8: Английский (AC3, 6 ch, 448 Кбит/с)
Субтитры: русские, английские
Общее
Уникальный идентификатор : 218664935228247195023677151733492780756 (0xA48155ABE871A29AA469F96B4ABC8ED4)
Полное имя : D:Мои РипыSledopyt.2007.x264.BDRip.AVC.MediaClub.mkv
Формат : Matroska
Версия формата : Version 4 / Version 2
Размер файла : 5,11 Гбайт
Продолжительность : 1 ч. 47 м.
Общий поток : 6827 Кбит/сек
Название фильма : = MediaClub = rip by krakatuq
Дата кодирования : UTC 2014-10-31 20:31:34
Программа кодирования : mkvmerge v6.6.0 ('The Edge Of The In Between') built on Dec 1 2013 17:55:00
Библиотека кодирования : libebml v1.3.0 + libmatroska v1.4.1

Видео
Идентификатор : 1
Формат : AVC
Формат/Информация : Advanced Video Codec
Профиль формата : High@L4.1
Параметр CABAC формата : Да
Параметр ReFrames формата : 10 кадров
Идентификатор кодека : V_MPEG4/ISO/AVC
Продолжительность : 1 ч. 47 м.
Битрейт : 3500 Кбит/сек
Ширина : 1024 пикселя
Высота : 426 пикселей
Соотношение сторон : 2,40:1
Режим частоты кадров : Постоянный
Частота кадров : 23,976 кадра/сек
Цветовое пространство : YUV
Субдискретизация насыщенности : 4:2:0
Битовая глубина : 8 бит
Тип развёртки : Прогрессивная
Бит/(Пиксели*Кадры) : 0.335
Размер потока : 2,52 Гбайт (49%)
Заголовок : Sledopyt.2007.x264.BDRip.AVC.MediaClub
Библиотека кодирования : x264 core 142 r2409+42 04be48a tMod [8-bit@4:2:0 X86]
Настройки программы : cabac=1 / ref=10 / deblock=1:-2:-2 / analyse=0x3:0x133 / me=umh / subme=11 / psy=1 / fade_compensate=0.00 / psy_rd=1.00:0.20 / mixed_ref=1 / me_range=32 / chroma_me=1 / trellis=2 / 8x8dct=1 / cqm=0 / deadzone=21,11 / fast_pskip=0 / chroma_qp_offset=-3 / threads=3 / lookahead_threads=1 / sliced_threads=0 / nr=0 / decimate=0 / interlaced=0 / bluray_compat=0 / constrained_intra=0 / fgo=0 / bframes=8 / b_pyramid=2 / b_adapt=2 / b_bias=0 / direct=3 / weightb=1 / open_gop=0 / weightp=2 / keyint=240 / keyint_min=23 / scenecut=40 / intra_refresh=0 / rc=2pass / mbtree=0 / bitrate=3500 / ratetol=1.0 / qcomp=0.60 / qpmin=0:0:0 / qpmax=69:69:69 / qpstep=4 / cplxblur=20.0 / qblur=0.5 / ip_ratio=1.40 / pb_ratio=1.30 / aq=1:1.00 / aq-sensitivity=10.00 / aq-factor=1.00:1.00:1.00 / aq2=0 / aq3=0
Язык : English
Default : Да
Forced : Нет

Аудио #1
Идентификатор : 2
Формат : AC-3
Формат/Информация : Audio Coding 3
Расширение режима : CM (complete main)
Параметр Endianness формата : Big
Идентификатор кодека : A_AC3
Продолжительность : 1 ч. 47 м.
Вид битрейта : Постоянный
Битрейт : 448 Кбит/сек
Каналы : 6 каналов
Расположение каналов : Front: L C R, Side: L R, LFE
Частота : 48,0 КГц
Битовая глубина : 16 бит
Метод сжатия : С потерями
Размер потока : 344 Мбайт (7%)
Заголовок : TRACK_01_DUB_RUS
Язык : Russian
Default : Да
Forced : Да

Аудио #2
Идентификатор : 3
Формат : AC-3
Формат/Информация : Audio Coding 3
Расширение режима : CM (complete main)
Параметр Endianness формата : Big
Идентификатор кодека : A_AC3
Продолжительность : 1 ч. 47 м.
Вид битрейта : Постоянный
Битрейт : 448 Кбит/сек
Каналы : 6 каналов
Расположение каналов : Front: L C R, Side: L R, LFE
Частота : 48,0 КГц
Битовая глубина : 16 бит
Метод сжатия : С потерями
Размер потока : 344 Мбайт (7%)
Заголовок : TRACK_02_MVO_RUS_BD CEE
Язык : Russian
Default : Нет
Forced : Нет

Аудио #3
Идентификатор : 4
Формат : AC-3
Формат/Информация : Audio Coding 3
Расширение режима : CM (complete main)
Параметр Endianness формата : Big
Идентификатор кодека : A_AC3
Продолжительность : 1 ч. 47 м.
Вид битрейта : Постоянный
Битрейт : 448 Кбит/сек
Каналы : 6 каналов
Расположение каналов : Front: L C R, Side: L R, LFE
Частота : 48,0 КГц
Битовая глубина : 16 бит
Метод сжатия : С потерями
Размер потока : 344 Мбайт (7%)
Заголовок : TRACK_03_MVO_RUS_Киномания
Язык : Russian
Default : Нет
Forced : Нет

Аудио #4
Идентификатор : 5
Формат : AC-3
Формат/Информация : Audio Coding 3
Расширение режима : CM (complete main)
Параметр Endianness формата : Big
Идентификатор кодека : A_AC3
Продолжительность : 1 ч. 47 м.
Вид битрейта : Постоянный
Битрейт : 448 Кбит/сек
Каналы : 6 каналов
Расположение каналов : Front: L C R, Side: L R, LFE
Частота : 48,0 КГц
Битовая глубина : 16 бит
Метод сжатия : С потерями
Размер потока : 344 Мбайт (7%)
Заголовок : TRACK_04_DVO_RUS
Язык : Russian
Default : Нет
Forced : Нет

Аудио #5
Идентификатор : 6
Формат : AC-3
Формат/Информация : Audio Coding 3
Расширение режима : CM (complete main)
Параметр Endianness формата : Big
Идентификатор кодека : A_AC3
Продолжительность : 1 ч. 47 м.
Вид битрейта : Постоянный
Битрейт : 448 Кбит/сек
Каналы : 6 каналов
Расположение каналов : Front: L C R, Side: L R, LFE
Частота : 48,0 КГц
Битовая глубина : 16 бит
Метод сжатия : С потерями
Размер потока : 344 Мбайт (7%)
Заголовок : TRACK_05_AVO_RUS_ZIVOV
Язык : Russian
Default : Нет
Forced : Нет

Аудио #6
Идентификатор : 7
Формат : AC-3
Формат/Информация : Audio Coding 3
Расширение режима : CM (complete main)
Параметр Endianness формата : Big
Идентификатор кодека : A_AC3
Продолжительность : 1 ч. 47 м.
Вид битрейта : Постоянный
Битрейт : 448 Кбит/сек
Каналы : 6 каналов
Расположение каналов : Front: L C R, Side: L R, LFE
Частота : 48,0 КГц
Битовая глубина : 16 бит
Метод сжатия : С потерями
Размер потока : 344 Мбайт (7%)
Заголовок : TRACK_06_AVO_RUS_NEMAHOV
Язык : Russian
Default : Нет
Forced : Нет

Аудио #7
Идентификатор : 8
Формат : AC-3
Формат/Информация : Audio Coding 3
Расширение режима : CM (complete main)
Параметр Endianness формата : Big
Идентификатор кодека : A_AC3
Продолжительность : 1 ч. 47 м.
Вид битрейта : Постоянный
Битрейт : 192 Кбит/сек
Каналы : 2 канала
Расположение каналов : Front: L R
Частота : 48,0 КГц
Битовая глубина : 16 бит
Метод сжатия : С потерями
Размер потока : 147 Мбайт (3%)
Заголовок : TRACK_07_DUB_UKR
Язык : Ukrainian
Default : Нет
Forced : Нет

Аудио #8
Идентификатор : 9
Формат : AC-3
Формат/Информация : Audio Coding 3
Расширение режима : CM (complete main)
Параметр Endianness формата : Big
Идентификатор кодека : A_AC3
Продолжительность : 1 ч. 47 м.
Вид битрейта : Постоянный
Битрейт : 448 Кбит/сек
Каналы : 6 каналов
Расположение каналов : Front: L C R, Side: L R, LFE
Частота : 48,0 КГц
Битовая глубина : 16 бит
Метод сжатия : С потерями
Размер потока : 344 Мбайт (7%)
Заголовок : TRACK_08_ORIGINAL_ENG
Язык : English
Default : Нет
Forced : Нет

Текст #1
Идентификатор : 10
Формат : UTF-8
Идентификатор кодека : S_TEXT/UTF8
Идентификатор кодека/Информация : UTF-8 Plain Text
Заголовок : TEXT_01_SUB_RUS
Язык : Russian
Default : Нет
Forced : Нет

Текст #2
Идентификатор : 11
Формат : UTF-8
Идентификатор кодека : S_TEXT/UTF8
Идентификатор кодека/Информация : UTF-8 Plain Text
Заголовок : TEXT_02_SUB_ENG
Язык : English
Default : Нет
Forced : Нет

Меню
00:00:00.000 : en:Main Titles/Marauders
00:02:06.335 : en:The Viking Ship
00:06:09.703 : en:Mystery Child
00:10:27.460 : en:Tribal Gathering
00:18:16.721 : en:Fear in the Forest
00:21:05.473 : en:Rampage
00:25:11.844 : en:Death by the Sword
00:27:46.456 : en:Bring Me His Head!
00:34:34.406 : en:Rescued
00:43:24.268 : en:Run and You May Live
00:47:37.730 : en:Two Wolves
00:55:36.959 : en:Sneak Attack
01:00:09.773 : en:Massacre
01:02:35.752 : en:In the Caves
01:10:17.797 : en:Torture
01:14:34.428 : en:Secret Plan
01:19:16.210 : en:Across the Lake
01:22:06.296 : en:Under the Ice
01:24:02.537 : en:Mountain Ledge
01:33:31.397 : en:I Know Who I Am
01:35:06.492 : en:Not One of Yours
01:37:40.229 : en:Spirit Prophecy
01:41:31.460 : en:Pathfinder
01:42:37.276 : en:End Titles

x264 log
x264 [info]: frame I:1186 Avg QP:16.36 size: 66927
x264 [info]: frame P:40152 Avg QP:19.77 size: 29378
x264 [info]: frame B:112862 Avg QP:22.08 size: 13747
Релиз от:

Автор рипа:



Скачать Следопыт.Pathfinder.(Маркус.Ниспел).[2007.боевик.триллер.драма.приключения.BDRip-AVC].[Режиссерская.версия.Director's.Cut].[Dub]+[MVO]x+[DVO]+[AVO.(Живов.Немахов)]+[Sub]x2.torrent без регистрации
Золото ЗОЛОТАЯ РАЗДАЧА! СКАЧАННОЕ НЕ ЗАСЧИТЫВАЕТСЯ! Золото
Дата: Зарегистрирован   [ Тип: внутренний ] Как тут cкачать?
MAGNET ссылка
MAGNET ссылка


Скачать .torrent

26 KB

Статус: проверено DHT
Скачан: торрент - 159 раз, раздача полностью - 18 раз
Размер: 5,11 GB
Оценка:  - (Голосов: 0)
Поблагодарили: 3
Поделиться ссылкой на эту раздачу с друзьями:
В контактеFacebookОдноклассникиTwitterLivejournalМой МирLiveinternet
 

 
Показать сообщения:    


Вы не можете начинать темы
Вы не можете отвечать на сообщения
Вы не можете редактировать свои сообщения
Вы не можете удалять свои сообщения
Вы не можете голосовать в опросах
Вы не можете прикреплять файлы к сообщениям
Вы можете скачивать файлы