Loading...
Error

Скачать Мистер мамочка / Mr. Mom (Стэн Дрэготи) [1983, комедия, HDTVRip] [DVO] торрент без регистрации

 
Статистика раздачи
Размер:  1,46 GB   |    Скачан:  104 раза
Сидов:  1  [  0 KB/s  ]  
 
Автор Сообщение

Marsianka

[] 

Название: Мистер мамочка
Оригинальное название: Mr. Mom
Год выпуска: 1983
Жанр: комедия
Выпущено: CША, Aaron Spelling Productions Inc., Sherwood Productions
Режиссер: Стэн Дрэготи
В ролях: Майкл Китон, Кристофер Ллойд, Тери Гарр, Мартин Мулл, Энн Джиллиэн, Фредерик Колер, Толизин Джаффе, Кортни Уайт, Бриттани Уайт, Джеффри Тэмбор

О фильме: Действие происходит в одной из обычных американских семей. Папа работает на заводе инженером, а мама в рекламном агентстве. В семье дети, которые требуют заботы. Но вот в семье грядут перемены — папу увольняют с работы, а мама наоборот получает новую высокооплачиваемую должность. Но теперь она не может уделять детям столько времени как раньше. Но выход есть — домохозяйкой становится отец детей. Но не всё у него получается, зато фильм наполняется множеством комичных моментов...


Качество: HDTVRip исходник (HDTV 1080i)
Видео: XviD, 2194 Кбит/с, 720x384
Аудио: Русский, AC3, 2 ch, 192 Кбит/с
Продолжительность: 01:27:26
Перевод: Профессиональный (двухголосый)

Спасибо за предоставленный исходник 1234plz

General
Complete name : G:Mr. Mom 1983 HDTVRip 1.46.avi
Format : AVI
Format/Info : Audio Video Interleave
File size : 1.46 GiB
Duration : 1h 27mn
Overall bit rate : 2 396 Kbps
Writing application : VirtualDubModRus 1.5.10.2 (build 2542/release)
Writing library : VirtualDubMod build 2542/release

Video
ID : 0
Format : MPEG-4 Visual
Format profile : Advanced Simple@L5
Format settings, BVOP : 2
Format settings, QPel : No
Format settings, GMC : No warppoints
Format settings, Matrix : Default (H.263)
Muxing mode : Packed bitstream
Codec ID : XVID
Codec ID/Hint : XviD
Duration : 1h 27mn
Bit rate : 2 195 Kbps
Width : 720 pixels
Height : 384 pixels
Display aspect ratio : 1.85:1
Frame rate : 25.000 fps
Color space : YUV
Chroma subsampling : 4:2:0
Bit depth : 8 bits
Scan type : Progressive
Compression mode : Lossy
Bits/(Pixel*Frame) : 0.318
Stream size : 1.34 GiB (92%)
Writing library : XviD 57

Audio
ID : 1
Format : AC-3
Format/Info : Audio Coding 3
Mode extension : CM (complete main)
Format settings, Endianness : Big
Codec ID : 2000
Duration : 1h 27mn
Bit rate mode : Constant
Bit rate : 192 Kbps
Channel(s) : 2 channels
Channel positions : Front: L R
Sampling rate : 48.0 KHz
Bit depth : 16 bits
Compression mode : Lossy
Stream size : 120 MiB (8%)
Alignment : Split accross interleaves
Interleave, duration : 40 ms (1.00 video frame)
Interleave, preload duration : 500 ms
Релиз от:



Скачать Мистер.мамочка.Mr.Mom.(Стэн.Дрэготи).[1983.комедия.HDTVRip].[DVO].torrent без регистрации
Золото ЗОЛОТАЯ РАЗДАЧА! СКАЧАННОЕ НЕ ЗАСЧИТЫВАЕТСЯ! Золото
Дата: Зарегистрирован   [ Тип: внутренний ] Как тут cкачать?
MAGNET ссылка
MAGNET ссылка


Скачать .torrent

15 KB

Статус: проверено DHT
Скачан: торрент - 104 раз, раздача полностью - 9 раз
Размер: 1,46 GB
Оценка:  - (Голосов: 0)
Поблагодарили: 2
Поделиться ссылкой на эту раздачу с друзьями:
В контактеFacebookОдноклассникиTwitterLivejournalМой МирLiveinternet
 

 
Показать сообщения:    


Вы не можете начинать темы
Вы не можете отвечать на сообщения
Вы не можете редактировать свои сообщения
Вы не можете удалять свои сообщения
Вы не можете голосовать в опросах
Вы не можете прикреплять файлы к сообщениям
Вы можете скачивать файлы