Loading...
Error

Скачать Перестрелка в Додж-Сити / The Gunfight at Dodge City (Джозеф М. Ньюман) [1959, вестерн, HDTVRip] [DVO] торрент без регистрации

 
Статистика раздачи
Размер:  1,37 GB   |    Скачан:  99 раз
Сидов:  1  [  0 KB/s  ]  
 
Автор Сообщение

Marsianka

[] 

Название: Перестрелка в Додж-Сити
Оригинальное название: The Gunfight at Dodge City
Год выхода: 1959
Выпущено: США, The Mirisch Corporation
Жанр: вестерн
Режиссер: Джозеф М. Ньюман
В ролях: Джоэл МакКри, Джули Адамс, Джон МакИнтайр, Нэнси Гейтс, Ричард Андерсон, Джеймс Уэстерфилд, Уолтер Кой, Дон Хэггерти, Райт Кинг, Гарри Лоутер

О фильме: Бат Мастерсон не лезет на рожон, но и никому не спускает с рук. Он покупает долю в местном салуне, и становится партнером вдовы Лили. А после метит на должность шерифа… Вслед за своим братом убит шериф. Бат Мастерсон избран новым шерифом, чтобы найти убийцу и очистить Додж-Сити от преступников. Один из голливудских вестернов, в свое время "похоронивших" этот жанр - вплоть до возрождения его компанией Леоне/Иствуд.


Файл
Качество: HDTVRip исходник (HDTV 1080i)
Видео: XviD, 2329 Кбит/с, 720x304
Аудио: AC3, 2 ch, 192.00 Кбит/с
Продолжительность: 01:17:31
Перевод: Профессиональный (двухголосный)

Спасибо за предоставленный исходник 1234plz

General
Complete name : G:The Gunfight at Dodge City 1959 HDTVRip 1.37.avi
Format : AVI
Format/Info : Audio Video Interleave
File size : 1.37 GiB
Duration : 1h 17mn
Overall bit rate : 2 531 Kbps
Writing application : VirtualDubModRus 1.5.10.2 (build 2542/release)
Writing library : VirtualDubMod build 2542/release

Video
ID : 0
Format : MPEG-4 Visual
Format profile : Advanced Simple@L5
Format settings, BVOP : 2
Format settings, QPel : No
Format settings, GMC : No warppoints
Format settings, Matrix : Default (H.263)
Muxing mode : Packed bitstream
Codec ID : XVID
Codec ID/Hint : XviD
Duration : 1h 17mn
Bit rate : 2 329 Kbps
Width : 720 pixels
Height : 304 pixels
Display aspect ratio : 2.35:1
Frame rate : 25.000 fps
Color space : YUV
Chroma subsampling : 4:2:0
Bit depth : 8 bits
Scan type : Progressive
Compression mode : Lossy
Bits/(Pixel*Frame) : 0.426
Stream size : 1.26 GiB (92%)
Writing library : XviD 57

Audio
ID : 1
Format : AC-3
Format/Info : Audio Coding 3
Mode extension : CM (complete main)
Format settings, Endianness : Big
Codec ID : 2000
Duration : 1h 17mn
Bit rate mode : Constant
Bit rate : 192 Kbps
Channel(s) : 2 channels
Channel positions : Front: L R
Sampling rate : 48.0 KHz
Bit depth : 16 bits
Compression mode : Lossy
Stream size : 106 MiB (8%)
Alignment : Split accross interleaves
Interleave, duration : 40 ms (1.00 video frame)
Interleave, preload duration : 500 ms
Релиз от:



Скачать Перестрелка.в.Додж-Сити.The.Gunfight.at.Dodge.City.(Джозеф.М.Ньюман).[1959.вестерн.HDTVRip].[DVO].torrent без регистрации
Золото ЗОЛОТАЯ РАЗДАЧА! СКАЧАННОЕ НЕ ЗАСЧИТЫВАЕТСЯ! Золото
Дата: Зарегистрирован   [ Тип: внутренний ] Как тут cкачать?
MAGNET ссылка
MAGNET ссылка


Скачать .torrent

14 KB

Статус: проверено DHT
Скачан: торрент - 99 раз, раздача полностью - 5 раз
Размер: 1,37 GB
Оценка:  - (Голосов: 0)
Поблагодарили: 0
Поделиться ссылкой на эту раздачу с друзьями:
В контактеFacebookОдноклассникиTwitterLivejournalМой МирLiveinternet
 

 
Показать сообщения:    


Вы не можете начинать темы
Вы не можете отвечать на сообщения
Вы не можете редактировать свои сообщения
Вы не можете удалять свои сообщения
Вы не можете голосовать в опросах
Вы не можете прикреплять файлы к сообщениям
Вы можете скачивать файлы