Loading...
Error

Скачать Парень по кличке Флинт / Our Man Flint (Дэниэл Манн) [1966, фантастика, фэнтези, боевик, комедия, приключения, BDRip-AVC] [MVO]+[AVO] торрент без регистрации

 
Статистика раздачи
Размер:  3,07 GB   |    Скачан:  152 раза
Сидов:  1  [  0 KB/s  ]  
 
Автор Сообщение

Marsianka

[] 

Информация о фильме
Название: Парень по кличке Флинт / Наш человек Флинт
Оригинальное название: Our Man Flint
Год выхода: 1966
Жанр: фантастика, фэнтези, боевик, комедия, приключения
Режиссер: Дэниэл Манн
В ролях: Джеймс Коберн, Ли Дж. Кобб, Гила Голан, Эдвард Малхейр, Бенсон Фонг, Шелби Грант, Сигрид Валдис, Джина Серра, Хелен Фунаи, Майкл Ст. Клэр, Рис Уильямс (I), Русс Конуэй, Эна Хартман, Билл Уолкер, Питер Брокко, Фред Олдрич, Тотти Амес, Джордж Благой, Юджин Борден, Джеймс Бролин, Гарри Картер, Льюис Чарльз, Винсент Кобб, Джордж Дега, Бруно Делла Сантина, Стивен Герэй, Джо Грэй, Роберт Ганнер, Чак Хикс, Рой Дженсон, Рой Джонсон, Лу Кругмен, Гэйл Левант, Херберт Литтон, Гарри Монти, Бойд ’Красный’ Морган, Альберто Морин, Джордж Перина, Джек Рэйне, Тура Сатана, Питер Вирго, Билл Уайт мл., Гленн Р. Уайлдер, Дик Уи

О фильме:
Пародия на Джеймса Бонда. Супер-крутого шпиона на пенсии Дерека Флинта призывают на помощь в борьбе с всемирной организацией G.A.L.A.X.Y, возглавляемой троицей сумашедших учёных: Доктором Круповым, Доктором Ву и Доктором Шнейдером. G.A.L.A.X.Y пытается шантажировать правительства мира... чтобы доказать серьёзность своих угроз G.A.L.A.X.Y, с помощью прибора, управляющего погодой, вызывает различные природные катастрофы - землятресения, извержения вулканов и ураганы...
Общее
Уникальный идентификатор : 198190556538314451038777737851257024507 (0x951A1CDD64A46966A63B82BC9744EFFB)
Полное имя : J:Готовые новые релизыOur.man.Flint.1966.x264.BDRip-AVC-MediaClub.mkv
Формат : Matroska
Версия формата : Version 2
Размер файла : 3,07 Гбайт
Продолжительность : 1 ч. 47 м.
Общий поток : 4079 Кбит/сек
Название фильма : Our man Flint (1966) BDRip-AVC =MediaClub= [Викс]
Дата кодирования : UTC 2014-11-01 20:35:26
Программа кодирования : mkvmerge v5.8.0 ('No Sleep / Pillow') built on Sep 2 2012 15:37:04
Библиотека кодирования : libebml v1.2.3 + libmatroska v1.3.0

Видео
Идентификатор : 1
Формат : AVC
Формат/Информация : Advanced Video Codec
Профиль формата : High@L4.1
Параметр CABAC формата : Да
Параметр ReFrames формата : 9 кадров
Идентификатор кодека : V_MPEG4/ISO/AVC
Продолжительность : 1 ч. 47 м.
Битрейт : 3500 Кбит/сек
Ширина : 1024 пикселя
Высота : 436 пикселей
Соотношение сторон : 2,35:1
Режим частоты кадров : Постоянный
Частота кадров : 23,976 кадра/сек
Цветовое пространство : YUV
Субдискретизация насыщенности : 4:2:0
Битовая глубина : 8 бит
Тип развёртки : Прогрессивная
Бит/(Пиксели*Кадры) : 0.327
Размер потока : 2,58 Гбайт (84%)
Библиотека кодирования : x264 core 125 r2208 d9d2288
Настройки программы : cabac=1 / ref=9 / deblock=1:-3:-3 / analyse=0x3:0x133 / me=umh / subme=11 / psy=1 / psy_rd=1.00:0.20 / mixed_ref=1 / me_range=48 / chroma_me=1 / trellis=2 / 8x8dct=1 / cqm=0 / deadzone=21,11 / fast_pskip=0 / chroma_qp_offset=-3 / threads=12 / lookahead_threads=2 / sliced_threads=0 / nr=0 / decimate=0 / interlaced=0 / bluray_compat=0 / constrained_intra=0 / bframes=8 / b_pyramid=2 / b_adapt=2 / b_bias=0 / direct=3 / weightb=1 / open_gop=0 / weightp=2 / keyint=240 / keyint_min=23 / scenecut=40 / intra_refresh=0 / rc_lookahead=40 / rc=2pass / mbtree=1 / bitrate=3500 / ratetol=1.0 / qcomp=0.60 / qpmin=0 / qpmax=69 / qpstep=4 / cplxblur=20.0 / qblur=0.5 / ip_ratio=1.40 / aq=1:1.00
Язык : English
Default : Да
Forced : Нет

Аудио #1
Идентификатор : 2
Формат : AC-3
Формат/Информация : Audio Coding 3
Расширение режима : CM (complete main)
Параметр Endianness формата : Big
Идентификатор кодека : A_AC3
Продолжительность : 1 ч. 47 м.
Вид битрейта : Постоянный
Битрейт : 192 Кбит/сек
Каналы : 2 канала
Расположение каналов : Front: L R
Частота : 48,0 КГц
Битовая глубина : 16 бит
Метод сжатия : С потерями
Размер потока : 148 Мбайт (5%)
Заголовок : PM
Язык : Russian
Default : Да
Forced : Нет

Аудио #2
Идентификатор : 3
Формат : AC-3
Формат/Информация : Audio Coding 3
Расширение режима : CM (complete main)
Параметр Endianness формата : Big
Идентификатор кодека : A_AC3
Продолжительность : 1 ч. 47 м.
Вид битрейта : Постоянный
Битрейт : 192 Кбит/сек
Каналы : 2 канала
Расположение каналов : Front: L R
Частота : 48,0 КГц
Битовая глубина : 16 бит
Метод сжатия : С потерями
Размер потока : 148 Мбайт (5%)
Заголовок : AP (Belov)
Язык : Russian
Default : Нет
Forced : Нет

Аудио #3
Идентификатор : 4
Формат : AC-3
Формат/Информация : Audio Coding 3
Расширение режима : CM (complete main)
Параметр Endianness формата : Big
Идентификатор кодека : A_AC3
Продолжительность : 1 ч. 47 м.
Вид битрейта : Постоянный
Битрейт : 192 Кбит/сек
Каналы : 1 канал
Расположение каналов : Front: C
Частота : 48,0 КГц
Битовая глубина : 16 бит
Метод сжатия : С потерями
Размер потока : 148 Мбайт (5%)
Язык : English
Default : Нет
Forced : Нет

Меню
00:00:00.000 : :Chapter 01
00:07:54.056 : :Chapter 02
00:14:42.798 : :Chapter 03
00:21:21.905 : :Chapter 04
00:29:14.252 : :Chapter 05
00:35:30.795 : :Chapter 06
00:41:06.380 : :Chapter 07
00:50:29.234 : :Chapter 08
01:05:15.411 : :Chapter 09
01:14:31.841 : :Chapter 10
01:22:27.399 : :Chapter 11
01:36:30.326 : :Chapter 12
01:47:44.457 : :Chapter 13

Страна: США
Студия: 20th Century Fox Film Corporation
Продолжительность: 01:47:44
Перевод: Профессиональный многоголосый (R5), авторский одноголосый (Вадим Белов)

Файл
Кодек: x264
Качество: BDRip-AVC
Видео: MPEG-4 AVC, 3500 Кбит/с, 1024x436, 23.976 кадр/с
Звук:
Аудио #1: Русский (AC3, 2 ch, 192 Кбит/с) / Профессиональный многоголосый (R5)
Аудио #2: Русский (AC3, 2 ch, 192 Кбит/с) / Авторский одноголосый (Вадим Белов)
Аудио #3: Английский (AC3, 2 ch, 192 Кбит/с)

Семпл Релиз от: Работа с аудио, рип - Викс



Скачать Парень.по.кличке.Флинт.Our.Man.Flint.(Дэниэл.Манн).[1966.фантастика.фэнтези.боевик.комедия.приключения.BDRip-AVC].[MVO]+[AVO].torrent без регистрации
Золото ЗОЛОТАЯ РАЗДАЧА! СКАЧАННОЕ НЕ ЗАСЧИТЫВАЕТСЯ! Золото
Дата: Зарегистрирован   [ Тип: внутренний ] Как тут cкачать?
MAGNET ссылка
MAGNET ссылка


Скачать .torrent

17 KB

Статус: проверено DHT
Скачан: торрент - 152 раз, раздача полностью - 9 раз
Размер: 3,07 GB
Оценка:  - (Голосов: 0)
Поблагодарили: 4
Поделиться ссылкой на эту раздачу с друзьями:
В контактеFacebookОдноклассникиTwitterLivejournalМой МирLiveinternet
 

 
Показать сообщения:    


Вы не можете начинать темы
Вы не можете отвечать на сообщения
Вы не можете редактировать свои сообщения
Вы не можете удалять свои сообщения
Вы не можете голосовать в опросах
Вы не можете прикреплять файлы к сообщениям
Вы можете скачивать файлы