Loading...
Error

Скачать Сломанная стрела / Broken Arrow (Джон Ву) [1996, боевик, триллер, BDRip-AVC] [MVO]x3+[AVO]x2+[Sub]x2 торрент без регистрации

 
Статистика раздачи
Размер:  3,73 GB   |    Скачан:  182 раза

Полного источника не было: 19 минут

 
Автор Сообщение

Marsianka

[] 

Сломанная стрела
| Broken Arrow |


Информация о фильме
Название: Сломанная стрела
Оригинальное название: Broken Arrow
Год выхода: 1996
Жанр: боевик, триллер
Режиссер: Джон Ву
В ролях: Джон Траволта, Кристиан Слэйтер, Саманта Мэтис, Делрой Линдо, Боб Гантон, Фрэнк Уэйли, Хоуи Лонг, Вонди Куртис-Холл, Джек Томпсон, Вито Руджинис, Усон Илам, Шон Тоуб, Кейси Биггз, Джеффри Дж. Стефен, Джои Бокс, Джон В. Киши, Майк Шварц, Джим Палмер, Винс Дедрик Ст., Чарли Брюэр

О фильме:
Двум пилотам-асам американских ВВС поручается выполнить секретное задание на самолете-невидимке с двумя ядерными боеголовками на борту. Дикенс, неудачник по жизни, постоянно пропускающий повышения по службе, задумывает похитить боеголовки, с тем чтобы шантажировать правительство США. Но его напарник Хэйл — честный парень и не позволит никому так просто взять и украсть собственность своей родной страны. Между ними разгорается самая настоящая война, в которой могут погибнуть не только они, но и несколько миллионов мирных жителей, живущих в округе, если хотя бы одна ядерная боеголовка взорвется.



Страна: США
Студия: Mark Gordon Productions, Twentieth Century Fox Film Corporation, WCG Entertainment Productions
Продолжительность: 01:43:58
Перевод: Профессиональный многоголосый, авторский

Файл
Кодек: h.264,
Качество: BDRip-AVC
Видео: 2751 Кбит/с, 1024x434, 23.976 кадр/с
№1: Русский (AC3, 6 ch, 384 Кбит/с) Профессиональный многоголосый [R5]
№2: Русский (AC3, 6 ch, 384 Кбит/с) Авторский одноголосый [Андрей Гаврилов]
№3: Английский (AC3, 6 ch, 384 Кбит/с)
Отдельно:
№4: Русский (AC3, 6 ch, 384 Кбит/с) Профессиональный многоголосый [Киномания]
№5: Русский (AC3, 2 ch, 192 Кбит/с) Профессиональный многоголосый [ОРТ]
№6: Русский (AC3, 6 ch, 384 Кбит/с) Авторский одноголосый [Юрий Живов]

Субтитры: Русские, английские

---------------------------------------------------------------------------------------
x264 [info]: frame I:1332 Avg QP:16.96 size: 61821
x264 [info]: frame P:36868 Avg QP:19.26 size: 25808
x264 [info]: frame B:117676 Avg QP:20.92 size: 10215
---------------------------------------------------------------------------------------

Полное имя : Broken.arrow.1996.x264.BDRip-AVC.0ptimus.mkv
Формат : Matroska
Версия формата : Version 2
Размер файла : 3,00 Гбайт
Продолжительность : 1 ч. 48 м.
Общий поток : 3969 Кбит/сек
Название фильма : Сломанная стрела | Broken Arrow [1996] -= BDRip (AVC) by 0ptimus =-
Дата кодирования : UTC 2014-11-02 09:20:56
Программа кодирования : mkvmerge v6.6.0 ('The Edge Of The In Between') built on Dec 1 2013 17:55:00
Библиотека кодирования : libebml v1.3.0 + libmatroska v1.4.1

Видео
Идентификатор : 1
Формат : AVC
Формат/Информация : Advanced Video Codec
Профиль формата : High@L4.1
Параметр CABAC формата : Да
Параметр ReFrames формата : 9 кадров
Идентификатор кодека : V_MPEG4/ISO/AVC
Продолжительность : 1 ч. 48 м.
Битрейт : 2751 Кбит/сек
Ширина : 1024 пикселя
Высота : 434 пикселя
Соотношение сторон : 2,35:1
Режим частоты кадров : Постоянный
Частота кадров : 23,976 кадра/сек
Цветовое пространство : YUV
Субдискретизация насыщенности : 4:2:0
Битовая глубина : 8 бит
Тип развёртки : Прогрессивная
Бит/(Пиксели*Кадры) : 0.258
Размер потока : 2,02 Гбайт (67%)
Заголовок : Rip by 0ptimus
Библиотека кодирования : x264 core 132 r2310 76a5c3a
Настройки программы : cabac=1 / ref=9 / deblock=1:-3:-3 / analyse=0x3:0x113 / me=umh / subme=11 / psy=1 / psy_rd=1.00:0.20 / mixed_ref=1 / me_range=32 / chroma_me=1 / trellis=2 / 8x8dct=1 / cqm=0 / deadzone=21,11 / fast_pskip=0 / chroma_qp_offset=-3 / threads=4 / lookahead_threads=1 / sliced_threads=0 / nr=0 / decimate=0 / interlaced=0 / bluray_compat=0 / constrained_intra=0 / bframes=8 / b_pyramid=2 / b_adapt=2 / b_bias=0 / direct=3 / weightb=1 / open_gop=0 / weightp=2 / keyint=240 / keyint_min=23 / scenecut=40 / intra_refresh=0 / rc_lookahead=40 / rc=2pass / mbtree=0 / bitrate=2751 / ratetol=1.0 / qcomp=0.60 / qpmin=0 / qpmax=69 / qpstep=4 / cplxblur=20.0 / qblur=0.5 / vbv_maxrate=50000 / vbv_bufsize=50000 / nal_hrd=none / ip_ratio=1.40 / pb_ratio=1.30 / aq=1:1.00
Язык : English
Default : Да
Forced : Да

Аудио #1
Идентификатор : 2
Формат : AC-3
Формат/Информация : Audio Coding 3
Расширение режима : CM (complete main)
Параметр Endianness формата : Big
Идентификатор кодека : A_AC3
Продолжительность : 1 ч. 48 м.
Вид битрейта : Постоянный
Битрейт : 448 Кбит/сек
Каналы : 6 каналов
Расположение каналов : Front: L C R, Side: L R, LFE
Частота : 48,0 КГц
Битовая глубина : 16 бит
Метод сжатия : С потерями
Размер потока : 347 Мбайт (11%)
Заголовок : Многоголосый закадровый [R5] AC3 5.1 @ 384 kbps
Язык : Russian
Default : Да
Forced : Да

Аудио #2
Идентификатор : 3
Формат : AC-3
Формат/Информация : Audio Coding 3
Расширение режима : CM (complete main)
Параметр Endianness формата : Big
Идентификатор кодека : A_AC3
Продолжительность : 1 ч. 48 м.
Вид битрейта : Постоянный
Битрейт : 384 Кбит/сек
Каналы : 6 каналов
Расположение каналов : Front: L C R, Side: L R, LFE
Частота : 48,0 КГц
Битовая глубина : 16 бит
Метод сжатия : С потерями
Размер потока : 298 Мбайт (10%)
Заголовок : Авторский [Андрей Гаврилов] AC3 5.1 @ 384 kbps
Язык : Russian
Default : Нет
Forced : Нет

Аудио #3
Идентификатор : 4
Формат : AC-3
Формат/Информация : Audio Coding 3
Расширение режима : CM (complete main)
Параметр Endianness формата : Big
Идентификатор кодека : A_AC3
Продолжительность : 1 ч. 48 м.
Вид битрейта : Постоянный
Битрейт : 384 Кбит/сек
Каналы : 6 каналов
Расположение каналов : Front: L C R, Side: L R, LFE
Частота : 48,0 КГц
Битовая глубина : 16 бит
Метод сжатия : С потерями
Размер потока : 298 Мбайт (10%)
Заголовок : AC3 5.1 @ 384 kbps
Язык : English
Default : Нет
Forced : Нет

Текст #1
Идентификатор : 5
Формат : UTF-8
Идентификатор кодека : S_TEXT/UTF8
Идентификатор кодека/Информация : UTF-8 Plain Text
Язык : Russian
Default : Нет
Forced : Нет

Текст #2
Идентификатор : 6
Формат : UTF-8
Идентификатор кодека : S_TEXT/UTF8
Идентификатор кодека/Информация : UTF-8 Plain Text
Язык : English
Default : Нет
Forced : Нет

Меню
00:00:00.000 : :Main Titles: Sparring Partners
00:05:28.286 : :Predawn Run
00:13:03.157 : :Skyjacked
00:17:41.977 : :A Press Release
00:20:00.907 : :No Nukes
00:22:59.336 : :An Officer and a Ranger
00:26:38.930 : :On Schedule
00:33:55.240 : :Air Raid
00:42:54.655 : :Road Games
00:50:53.007 : :Armed and Dangerous
00:53:59.402 : :Going Underground
01:04:42.711 : :Race Against Time
01:08:48.164 : :Having a Blast
01:11:17.146 : :Back on Deakins' Trail
01:14:29.881 : :The Stowaway
01:18:00.509 : :"What About the Girl?"
01:20:56.184 : :Making Tracks
01:26:34.189 : :The Rescuers
01:28:49.532 : :Crack Shot
01:30:31.175 : :Riding the Rails
01:33:05.578 : :The Final Countdown
01:42:13.417 : :End Titles
Релиз от:



Скачать Сломанная.стрела.Broken.Arrow.(Джон.Ву).[1996.боевик.триллер.BDRip-AVC].[MVO]x3+[AVO]x2+[Sub]x2.torrent без регистрации
Золото ЗОЛОТАЯ РАЗДАЧА! СКАЧАННОЕ НЕ ЗАСЧИТЫВАЕТСЯ! Золото
Дата: Зарегистрирован   [ Тип: внутренний ] Как тут cкачать?
MAGNET ссылка
MAGNET ссылка


Скачать .torrent

39 KB

Статус: проверено DHT
Скачан: торрент - 182 раз, раздача полностью - 35 раз
Размер: 3,73 GB
Оценка:  5 (Голосов: 1)
Поблагодарили: 2
Поделиться ссылкой на эту раздачу с друзьями:
В контактеFacebookОдноклассникиTwitterLivejournalМой МирLiveinternet
 

 
Показать сообщения:    


Вы не можете начинать темы
Вы не можете отвечать на сообщения
Вы не можете редактировать свои сообщения
Вы не можете удалять свои сообщения
Вы не можете голосовать в опросах
Вы не можете прикреплять файлы к сообщениям
Вы можете скачивать файлы