Loading...
Error

Скачать Когда мужчина любит женщину / When a man loves a woman (Луис Мандоки) [1994, драма, HDTVRip-AVC] [MVO]+[Sub] торрент без регистрации

 
Статистика раздачи
Размер:  2,16 GB   |    Скачан:  102 раза
Сидов:  20  [  0 KB/s  ]  
 
Автор Сообщение

Marsianka

[] 

Информация о фильме
Название: Когда мужчина любит женщину
Оригинальное название: When a man loves a woman
Год выхода: 1994
Жанр: драма
Режиссер: Луис Мандоки
В ролях: Энди Гарсиа, Мег Райан, Эллен Бёрстин, Тина Мажорино, Мэй Уитман, Лорен Том

О фильме:
Идеальная семья. Упоительное счастье. Настоящая любовь. После стольких лет, прожитых вместе, Майклу казалось, что он знает о жене все.
Однако у Элис оставалось нечто, о чем она не могла рассказать даже ему. Если эта тайна раскроется, идеальная семья и упоительное счастье превратятся в руины. Останется только любовь. Но сумеет ли она выдержать такое испытание?



Страна: США
Продолжительность: 02:00:20
Перевод: Профессиональный Многоголосый (СТС)

Файл
Кодек: h.264
Качество: HDTVRip-AVC
Видео: 1024x552, 2200kb/s
Звук: AC3 2.0, 192kb/s
Субтитры: Русские (вшитые, отключаемые)

O:DownloadsWhen a Man Loves a Woman (1994.HDTVRip-AVC).mkv
General
Complete name : O:DownloadsWhen a Man Loves a Woman (1994.HDTVRip-AVC).mkv
Format : Matroska
File size : 2.16 GiB
Duration : 2h 0mn
Overall bit rate : 2 568 Kbps
Movie name : =kinozal.tv-HD=
Writing application : XviD4PSP 6.0 / 53.6.0
Writing library : XviD4PSP 6.0 / 53.6.0
Video #1
ID : 1
Format : AVC
Format/Info : Advanced Video Codec
Format profile : High@L4.1
Format settings, CABAC : Yes
Format settings, ReFrames : 3 frames
Muxing mode : Container profile=Unknown@4.1
Codec ID : V_MPEG4/ISO/AVC
Duration : 2h 0mn
Bit rate : 2 133 Kbps
Nominal bit rate : 2 200 Kbps
Width : 1 024 pixels
Height : 552 pixels
Display aspect ratio : 1.862
Frame rate mode : Variable
Frame rate : 25.000 fps
Resolution : 24 bits
Colorimetry : 4:2:0
Scan type : Progressive
Bits/(Pixel*Frame) : 0.151
Stream size : 1.79 GiB (83%)
Writing library : x264 core 116 r2019M 9cc407d
Encoding settings : cabac=1 / ref=3 / deblock=1:0:0 / analyse=0x3:0x133 / me=hex / subme=7 / psy=1 / psy_rd=1.00:0.20 / mixed_ref=1 / me_range=16 / chroma_me=1 / trellis=1 / 8x8dct=1 / cqm=0 / deadzone=21,11 / fast_pskip=1 / chroma_qp_offset=-3 / threads=8 / sliced_threads=0 / nr=0 / decimate=1 / interlaced=0 / bluray_compat=0 / constrained_intra=0 / bframes=3 / b_pyramid=1 / b_adapt=2 / b_bias=0 / direct=3 / weightb=1 / open_gop=0 / weightp=2 / keyint=250 / keyint_min=25 / scenecut=40 / intra_refresh=0 / rc_lookahead=40 / rc=abr / mbtree=1 / bitrate=2200 / ratetol=1.0 / qcomp=0.60 / qpmin=10 / qpmax=51 / qpstep=4 / ip_ratio=1.40 / aq=1:1.00
Language : English
Audio #2
ID : 2
Format : AC-3
Format/Info : Audio Coding 3
Codec ID : A_AC3
Duration : 2h 0mn
Bit rate mode : Constant
Bit rate : 192 Kbps
Channel(s) : 2 channels
Channel positions : L R
Sampling rate : 48.0 KHz
Resolution : 16 bits
Stream size : 165 MiB (7%)
Language : Russian
Audio #3
ID : 3
Format : AC-3
Format/Info : Audio Coding 3
Codec ID : A_AC3
Duration : 2h 0mn
Bit rate mode : Constant
Bit rate : 192 Kbps
Channel(s) : 2 channels
Channel positions : L R
Sampling rate : 48.0 KHz
Resolution : 16 bits
Stream size : 165 MiB (7%)
Language : English
Text #4
ID : 4
Format : UTF-8
Codec ID : S_TEXT/UTF8
Codec ID/Info : UTF-8 Plain Text
Language : Russian



Скачать Когда.мужчина.любит.женщину.When.a.man.loves.a.woman.(Луис.Мандоки).[1994.драма.HDTVRip-AVC].[MVO]+[Sub].torrent без регистрации
Золото ЗОЛОТАЯ РАЗДАЧА! СКАЧАННОЕ НЕ ЗАСЧИТЫВАЕТСЯ! Золото
Дата: Зарегистрирован   [ Тип: внешний ] Как тут cкачать?
MAGNET ссылка
MAGNET ссылка


Скачать .torrent

12 KB

Статус: проверено DHT
Скачан: торрент - 102 раз, раздача полностью - 34 раз
Размер: 2,16 GB
Оценка:  - (Голосов: 0)
Поблагодарили: 1
Поделиться ссылкой на эту раздачу с друзьями:
В контактеFacebookОдноклассникиTwitterLivejournalМой МирLiveinternet
 

 
Показать сообщения:    


Вы не можете начинать темы
Вы не можете отвечать на сообщения
Вы не можете редактировать свои сообщения
Вы не можете удалять свои сообщения
Вы не можете голосовать в опросах
Вы не можете прикреплять файлы к сообщениям
Вы можете скачивать файлы