Loading...
Error

Скачать Американская история ужасов / American Horror Story (сезон 4) (Альфонсо Гомез-Рейон, Майкл Леманн) [2014, драма, ужасы, триллер, WEB-DL] [720p] MVO (LostFilm)+DVO (Кубик в Кубе) + Original + Subs (Rus,Eng) торрент без регистрации

 
Статистика раздачи
Размер:  24,48 GB   |    Скачан:  5583 раза
Сидов:  1  [  0 KB/s  ]  
 
Автор Сообщение

МихаНЕзатор

[] 



Американская история ужасов / American Horror Story


Год выпуска: 2014
Страна: США
Жанр: Драма, Ужасы, Триллер
Продолжительность: ~ 01:05:00
Перевод 3: Профессиональный (многоголосый закадровый) LostFilm
Перевод 4: Профессиональный (двухголосый закадровый) Кубик в Кубе
Режиссёр: Брэдли Букер, Майкл Аппендаль, Альфонсо Гомез-Рейон, Майкл Леманн / Bradley Buecker, Micha
В ролях: Эван Питерс, Джессика Лэнг, Фрэнсис Конрой, Сара Полсон, Дэнис О’Хэйр, Таисса Фармига, Кэти Бейтс
Описание:
Полное собрание национальных кошмаров. Мы уже видели дом с привидениями, больницу для душевнобольных преступников и ведьмовский шабаш. Настал черед цирка уродов. Флорида, 1950-е. Управляющая последним паноптикумом в стране собирается закрыть свое шоу. Но артисты-фрики не рады досрочной пенсии. Они сделают что угодно, чтобы жуткий цирк продолжал существовать.
Доп. информация:
Работа со звуком LostFilm: Серии - 1 markinscor, 2-4 Skyns61
При содействии Re-L Mayer
Работа со звуком Кубик в Кубе: ЛП
Сихронизация субтитров: Skyns61

Качество: WEB-DL 720p
Контейнер: MKV
Видео: AVC, ~4000 Кбит/сек, 1280x720 (1.778), 23.976 кадр/сек, 0.176 бит/пиксели
Аудио rus: AC-3, 3/2 (L,C,R,l,r) + LFE ch, 48,0 КГц, 384 Кбит/сек - LostFilm
Аудио rus: AC-3, 3/2 (L,C,R,l,r) + LFE ch, 48,0 КГц, 384 Кбит/сек - Кубик в Кубе
Аудио eng: AC-3, 3/2 (L,C,R,l,r) + LFE ch, 48,0 КГц, 384 Кбит/сек
Субтитры: русские (Notabenoid) , английские

АНОНСЫ ПОПУЛЯРНЫХ РАЗДАЧ


27.01.2015 г. торрент обновлён, добавлена 13-я серия!

01. Чудовища среди нас /Monsters Among Us
02. Убийства и представления /Massacres and Matinees
03. Эдвард Мордрейк. Часть 1 /Edward Mordrake: Part 1
04. Эдвард Мордрейк. Часть 2 Edward Mordrake: Part 2
05. Кексы с розовым кремом /Pink Cupcakes
06. В яблочко /Bullseye
07. Испытание силы /Test of Strength
08. Кровавая баня /Blood Bath
09. Резня в клубе домохозяек /Tupperware Party Massacre
10. Сироты /Orphans
11. Думай, как фокусник /Magical Thinking
12. Гвоздь программы /Show Stoppers
13. Занавес /Curain Call

Общее
Уникальный идентификатор : 195652584397887922384152621538555447014 (0x9331512D6423E0819537CF708FEBC6E6)
Полное имя : G:\Films\American Horror Story.S04.Sborka\American.Horror.Story.S04E02.720p.WEB-DL.2xRus.Eng.mkv
Формат : Matroska
Версия формата : Version 4 / Version 2
Размер файла : 2,09 Гбайт
Продолжительность : 56 м.
Общий поток : 5264 Кбит/сек
Дата кодирования : UTC 2014-10-25 05:18:09
Программа кодирования : mkvmerge v7.2.0 ('On Every Street') 64bit built on Sep 13 2014 15:52:10
Библиотека кодирования : libebml v1.3.0 + libmatroska v1.4.1
_STATISTICS_WRITING_APP : mkvmerge v7.2.0 ('On Every Street') 64bit built on Sep 13 2014 15:52:10
_STATISTICS_WRITING_DATE_UTC : 2014-10-25 05:18:09
_STATISTICS_TAGS : BPS DURATION NUMBER_OF_FRAMES NUMBER_OF_BYTES
DURATION : 00:56:47.904000000
NUMBER_OF_FRAMES : 106497
NUMBER_OF_BYTES : 163579392
Видео
Идентификатор : 1
Формат : AVC
Формат/Информация : Advanced Video Codec
Профиль формата : High@L3.1
Параметр CABAC формата : Нет
Параметр ReFrames формата : 2 кадра
Идентификатор кодека : V_MPEG4/ISO/AVC
Продолжительность : 56 м.
Битрейт : 4007 Кбит/сек
Ширина : 1280 пикселей
Высота : 720 пикселей
Соотношение сторон : 16:9
Режим частоты кадров : Постоянный
Частота кадров : 23,976 кадра/сек
Цветовое пространство : YUV
Субдискретизация насыщенности : 4:2:0
Битовая глубина : 8 бит
Тип развёртки : Прогрессивная
Бит/(Пиксели*Кадры) : 0.181
Размер потока : 1,59 Гбайт (76%)
Язык : English
Default : Да
Forced : Нет
Основные цвета : BT.709
Характеристики трансфера : BT.709
Коэффициенты матрицы : BT.709
Аудио #1
Идентификатор : 2
Формат : AC-3
Формат/Информация : Audio Coding 3
Расширение режима : CM (complete main)
Параметр Endianness формата : Big
Идентификатор кодека : A_AC3
Продолжительность : 56 м.
Вид битрейта : Постоянный
Битрейт : 384 Кбит/сек
Каналы : 6 каналов
Расположение каналов : Front: L C R, Side: L R, LFE
Частота : 48,0 КГц
Битовая глубина : 16 бит
Метод сжатия : С потерями
Размер потока : 156 Мбайт (7%)
Заголовок : LostFilm
Язык : Russian
Default : Да
Forced : Нет
Аудио #2
Идентификатор : 3
Формат : AC-3
Формат/Информация : Audio Coding 3
Расширение режима : CM (complete main)
Параметр Endianness формата : Big
Идентификатор кодека : A_AC3
Продолжительность : 56 м.
Вид битрейта : Постоянный
Битрейт : 384 Кбит/сек
Каналы : 6 каналов
Расположение каналов : Front: L C R, Side: L R, LFE
Частота : 48,0 КГц
Битовая глубина : 16 бит
Метод сжатия : С потерями
Размер потока : 156 Мбайт (7%)
Заголовок : Кубик в Кубе 5,1
Язык : Russian
Default : Нет
Forced : Нет
Аудио #3
Идентификатор : 4
Формат : AC-3
Формат/Информация : Audio Coding 3
Расширение режима : CM (complete main)
Параметр Endianness формата : Big
Идентификатор кодека : A_AC3
Продолжительность : 56 м.
Вид битрейта : Постоянный
Битрейт : 384 Кбит/сек
Каналы : 6 каналов
Расположение каналов : Front: L C R, Side: L R, LFE
Частота : 48,0 КГц
Битовая глубина : 16 бит
Метод сжатия : С потерями
Размер потока : 156 Мбайт (7%)
Язык : English
Default : Нет
Forced : Нет
Текст #1
Идентификатор : 5
Формат : UTF-8
Идентификатор кодека : S_TEXT/UTF8
Идентификатор кодека/Информация : UTF-8 Plain Text
Заголовок : rus
Язык : Russian
Default : Нет
Forced : Нет
Текст #2
Идентификатор : 6
Формат : UTF-8
Идентификатор кодека : S_TEXT/UTF8
Идентификатор кодека/Информация : UTF-8 Plain Text
Заголовок : CC
Язык : English
Default : Нет
Forced : Нет

Внимание! Раздача ведётся путём добавления новых серий; при каждом добавлении создётся новый торрент. Чтобы начать докачку новой серии, пользователям необходимо сделать следующее:
Остановить скачивание.
Удалить старый торрент у себя из клиента (старые серии удалять не надо).
Скачать новый торрент и запустить его у себя в клиенте вместо старого, при этом указать клиенту путь в старую папку куда и должно происходить скачивание новых серий.
Ваш клиент при этом должен произвести хеширование (проверку) старой папки (если не производит сам - помогите ему сделать это), и будет докачивать только те серии которых у вас ещё нет. Старые серии при этом не удаляются, а продолжают раздаваться!
Eсли вы уже удалили старые серии, то предотвратить повторную закачку старых серий можно, отжав галочку в соответсвующих местах при запуске нового торрента. По возможности, желательно не удалять старые серии как можно дольше чтобы релизёр не столько продолжал раздавать старые серии, а смог сконцентрироваться на новых.



Скачать Американская.история.ужасов.American.Horror.Story.(сезон.4).(Альфонсо.Гомез-Рейон.Майкл.Леманн).[2014.драма.ужасы.триллер.WEB-DL].[720p].MVO.(LostFilm)+DVO.(Кубик.в.Кубе).+.Original.+.Subs.(Rus.Eng).torrent без регистрации
Золото ЗОЛОТАЯ РАЗДАЧА! СКАЧАННОЕ НЕ ЗАСЧИТЫВАЕТСЯ! Золото
Дата: Зарегистрирован   [ Тип: внутренний ] Как тут cкачать?
MAGNET ссылка
MAGNET ссылка


Скачать .torrent

63 KB

Статус: проверено DHT
Скачан: торрент - 5583 раз, раздача полностью - 163 раз
Размер: 24,48 GB
Оценка:  4,5 (Голосов: 2)
Поблагодарили: 4
Поделиться ссылкой на эту раздачу с друзьями:
В контактеFacebookОдноклассникиTwitterLivejournalМой МирLiveinternet
 

 

МихаНЕзатор

[] 

Раздача обновлена
 
Показать сообщения:    


Вы не можете начинать темы
Вы не можете отвечать на сообщения
Вы не можете редактировать свои сообщения
Вы не можете удалять свои сообщения
Вы не можете голосовать в опросах
Вы не можете прикреплять файлы к сообщениям
Вы можете скачивать файлы