Loading...
Error

Скачать Гримм / Grimm (сезон 04) (Норберто Барба, Терренс О’Хара) [2014-2015, фэнтези, ужасы, детектив, драма, WEB-DL] [1080p] Original + Eng, Rus Subs торрент без регистрации

 
Статистика раздачи
Размер:  35,7 GB   |    Скачан:  462 раза
Сидов:  1  [  0 KB/s  ]  
 
Автор Сообщение

МихаНЕзатор

[] 

Гримм / Grimm


Год выпуска: 2014-2015
Страна: США
Жанр: фэнтези, ужасы, детектив, драма
Продолжительность: ~43
Перевод: Субтитры - сайт cotranslate
Режиссёр: Норберто Барба, Терренс О’Хара

В ролях: Дэвид Гвинтоли, Расселл Хорнсби, Битси Таллоч, Сайлас Уэйр Митчелл, Клэр Коффи, Саша Ройз, Регги Ли, Бри Тёрнер, Клэр Коффи

Описание: Действие происходит в современном Портленде, где детектив из отдела убийств узнаёт, что он является потомком группы охотников, известных как «Гриммы», которые сражаются, чтобы сохранить человечество в безопасности от сверхъестественных существ. Узнав о своей судьбе, он должен защитить каждую живую душу от зловещих персонажей сборника сказок, которые проникли в реальный мир.



Качество: WEB-DL 1080p
Контейнер: MKV
Видео: AVC, 1920x1080, 16:9, 23,976 fps, 4820 kbps
Аудио: Eng, AC-3, 48 kHz, 6 ch, 384 kbps
Субтитры: Eng, Rus: softsub (SRT)

АНОНСЫ ПОПУЛЯРНЫХ РАЗДАЧ


Торрент обновлён, добавлена 22-я серия!

01. Спасибо за воспоминания / Thanks for the Memories
02. Голова осьминога / Octopus Head
03. Последний бой / Last Fight
04. Смертельная молитва / Dyin' on a Prayer
05. Спасите, Луисон! / Cry Luison
06. Смертельная молитва / Dyin' on a Prayer
07. Гримм, укравший Рождество / The Grimm Who Stole Christmas
08. Чупакабра / Chupacabra
09. Орден Чистой крови / Wesenrein
10. Трибунал / Tribunal
11. Смерть разлучит нас / Death Do Us Part
12. Жандарм / Maréchaussée
13. Испытание огнём / Trial by Fire
14. Злосчастье / Bad Luck
15. Двойное свидание / Double Date
16. Разбивающая сердца / Heartbreaker
17. Зимнее логово / Hibernaculum
18. Мишипишу / Mishipeshu
19. Железный Ганс / Iron Hans
20. Вы не знаете Джека / You Don't Know Jack
21. Головная боль / Headache
22. Cry Havoc
Формат : Matroska
Размер файла : 1,60 Гбайт
Продолжительность : 43 м.
Общий поток : 5310 Кбит/сек
Дата кодирования : UTC 2014-10-26 10:36:06
Программа кодирования : mkvmerge v7.3.0 ('Nouages') 32bit built on Oct 22 2014 18:44:01
Библиотека кодирования : libebml v1.3.0 + libmatroska v1.4.1
Обложка : Yes / Yes / Yes / Yes
Видео
Идентификатор : 1
Формат : AVC
Формат/Информация : Advanced Video Codec
Профиль формата : High@L4.0
Параметр CABAC формата : Да
Параметр ReFrames формата : 4 кадры
Параметры GOP формата : M=2, N=31
Идентификатор кодека : V_MPEG4/ISO/AVC
Продолжительность : 43 м.
Битрейт : 4820 Кбит/сек
Ширина : 1920 пикс.
Высота : 1080 пикс.
Соотношение сторон : 16:9
Частота кадров : 23,976 кадр/сек
Цветовое пространство : YUV
Подвыборка цветности : 4:2:0
Битовая глубина : 8 бит
Тип развёртки : Прогрессивная
Бит/(Пиксели*Кадры) : 0.097
Размер потока : 1,45 Гбайт (91%)
Язык : English
Основные цвета : BT.709-5, BT.1361, IEC 61966-2-4, SMPTE RP177
Характеристики трансфера : BT.709-5, BT.1361
Коэффициенты матрицы : BT.709-5, BT.1361, IEC 61966-2-4 709, SMPTE RP177
Аудио
Идентификатор : 2
Формат : AC-3
Формат/Информация : Audio Coding 3
Расширение режима : CM (complete main)
Идентификатор кодека : A_AC3
Продолжительность : 43 м.
Вид битрейта : Постоянный
Битрейт : 384 Кбит/сек
Канал(ы) : 6 канала(ов)
Расположение каналов : Front: L C R, Side: L R, LFE
Частота : 48,0 КГц
Битовая глубина : 16 бит
Метод сжатия : С потерями
Размер потока : 118 Мбайт (7%)
Язык : English
Текст #1
Идентификатор : 3
Формат : UTF-8
Идентификатор кодека : S_TEXT/UTF8
Идентификатор кодека/Информация : UTF-8 Plain Text
Язык : Russian
Текст #2
Идентификатор : 4
Формат : UTF-8
Идентификатор кодека : S_TEXT/UTF8
Идентификатор кодека/Информация : UTF-8 Plain Text
Язык : English



Скачать Гримм.Grimm.(сезон.04).(Норберто.Барба.Терренс.О’Хара).[2014-2015.фэнтези.ужасы.детектив.драма.WEB-DL].[1080p].Original.+.Eng.Rus.Subs.torrent без регистрации
Золото ЗОЛОТАЯ РАЗДАЧА! СКАЧАННОЕ НЕ ЗАСЧИТЫВАЕТСЯ! Золото
Дата: Зарегистрирован   [ Тип: внутренний ] Как тут cкачать?
MAGNET ссылка
MAGNET ссылка


Скачать .torrent

360 KB

Статус: проверено DHT
Скачан: торрент - 462 раз, раздача полностью - 5 раз
Размер: 35,7 GB
Оценка:  1 (Голосов: 1)
Поблагодарили: 0
Поделиться ссылкой на эту раздачу с друзьями:
В контактеFacebookОдноклассникиTwitterLivejournalМой МирLiveinternet
 

 
Показать сообщения:    


Вы не можете начинать темы
Вы не можете отвечать на сообщения
Вы не можете редактировать свои сообщения
Вы не можете удалять свои сообщения
Вы не можете голосовать в опросах
Вы не можете прикреплять файлы к сообщениям
Вы можете скачивать файлы