Loading...
Error

Скачать Гримм / Grimm (сезон 4) (Норберто Барба, Дарнелл Мартин, Дэвид Соломон) [2014-2015, Ужасы, фэнтези, драма, детектив, WEB-DL 720p] MVO (LostFilm (DD 5.1)) + Original + Subs (rus+eng) торрент без регистрации

 
Статистика раздачи
Размер:  31,58 GB   |    Скачан:  456 раз
Сидов:  1  [  0 KB/s  ]  
 
Автор Сообщение

МихаНЕзатор

[] 



Гримм / Grimm


Год выпуска: 2014-2015
Страна: США
Жанр: Ужасы, фэнтези, драма, детектив
Продолжительность: ~ 00:43:00
Перевод: Профессиональный (многоголосый закадровый) LostFilm
Режиссёр: Норберто Барба, Дарнелл Мартин, Дэвид Соломон
В ролях: Дэвид Гвинтоли, Битси Таллоч, Сайлас Уэйр Митчелл, Расселл Хорнсби, Саша Ройз, Регги Ли, Клер Коффи, Бри Тёрнер, Джошуа Ли Фрэзиер, Шарон Сакс
Описание:
Действие происходит в современном Портленде, где детектив из отдела убийств узнаёт, что он является потомком группы охотников, известных как «Гриммы», которые сражаются, чтобы сохранить человечество в безопасности от сверхъестественных существ. Узнав о своей судьбе, и том, что он является последним из своего рода, он должен защитить каждую живую душу от зловещих персонажей сборника сказок, которые проникли в реальный мир.
Доп. информация:
Работа со звуком: k-marat-s
Синхронизация субтитров: Skyns61

Качество: WEB-DL 720p
Контейнер: MKV
Видео: AVC, 1280x720 (16:9), 23.976 fps, ~3914 kbps, 0.177 bit/pixel
Аудио rus: 48 kHz, AC3, 3/2 (L,C,R,l,r) + LFE ch, ~384 kbps
Аудио eng: 48 kHz, AC3, 3/2 (L,C,R,l,r) + LFE ch, ~384 kbps
Субтитры: английские

АНОНСЫ ПОПУЛЯРНЫХ РАЗДАЧ


Торрент обновлён, добавлена 22-я серия!

01. Спасибо за воспоминания / Thanks for the Memories
02. Голова осьминога / Octopus Head
03. Последний бой /Last Fight
04. Смертельная молитва /Dyin' on a Prayer
05. Спасите, Луисон! /Cry Luison
06. Дорога слёз /Highway of Tears
07. Гримм, укравший Рождество /The Grimm Who Stole Christmas
08. Чупакабра /Chupacabra
09. Орден Чистой крови /Wesenrein
10. Трибунал / Tribunal
11. Смерть разлучит нас /Death Do Us Part
12. Жандарм /Maréchaussée
13. Испытание огнём /Trial by Fire
14. Злосчастье /Bad Luck
15. Двойное свидание /Double Date
16. Разбивающая сердца /Heartbreaker
17. Зимнее логово /Hibernaculum
18. Мишипишу /Mishipeshu
19. Железный Ганс /Iron Hans
20. Вы не знаете Джека /You Don't Know Jack
21. Головная боль /Headache
22. Без пощады /Cry Havoc
Общее
Уникальный идентификатор : 189014934481685082204149604055962051554 (0x8E32F3C50C56A8A882DD78EC8C8363E2)
Полное имя : G:\Films\Grimm.S04.FostFilm.DD5.1\Grimm.S04E01.720p.WEB-DL.Rus.Eng.LostFilm.DD5.1.mkv
Формат : Matroska
Версия формата : Version 4 / Version 2
Размер файла : 1,44 Гбайт
Продолжительность : 43 м.
Общий поток : 4777 Кбит/сек
Дата кодирования : UTC 2014-11-04 07:22:00
Программа кодирования : mkvmerge v7.2.0 ('On Every Street') 64bit built on Sep 13 2014 15:52:10
Библиотека кодирования : libebml v1.3.0 + libmatroska v1.4.1
DURATION : 00:42:17.322000000
NUMBER_OF_FRAMES : 779
NUMBER_OF_BYTES : 41627
Видео
Идентификатор : 1
Формат : AVC
Формат/Информация : Advanced Video Codec
Профиль формата : High@L3.1
Параметр CABAC формата : Нет
Параметр ReFrames формата : 2 кадра
Идентификатор кодека : V_MPEG4/ISO/AVC
Продолжительность : 43 м.
Битрейт : 3914 Кбит/сек
Ширина : 1280 пикселей
Высота : 720 пикселей
Соотношение сторон : 16:9
Режим частоты кадров : Постоянный
Частота кадров : 23,976 кадра/сек
Цветовое пространство : YUV
Субдискретизация насыщенности : 4:2:0
Битовая глубина : 8 бит
Тип развёртки : Прогрессивная
Бит/(Пиксели*Кадры) : 0.177
Размер потока : 1,18 Гбайт (82%)
Язык : English
Default : Да
Forced : Нет
Основные цвета : BT.709
Характеристики трансфера : BT.709
Коэффициенты матрицы : BT.709
Аудио #1
Идентификатор : 2
Формат : AC-3
Формат/Информация : Audio Coding 3
Расширение режима : CM (complete main)
Параметр Endianness формата : Big
Идентификатор кодека : A_AC3
Продолжительность : 43 м.
Вид битрейта : Постоянный
Битрейт : 384 Кбит/сек
Каналы : 6 каналов
Расположение каналов : Front: L C R, Side: L R, LFE
Частота : 48,0 КГц
Битовая глубина : 16 бит
Метод сжатия : С потерями
Размер потока : 118 Мбайт (8%)
Заголовок : LostFilm 5.1
Язык : Russian
Default : Да
Forced : Нет
Аудио #2
Идентификатор : 3
Формат : AC-3
Формат/Информация : Audio Coding 3
Расширение режима : CM (complete main)
Параметр Endianness формата : Big
Идентификатор кодека : A_AC3
Продолжительность : 43 м.
Вид битрейта : Постоянный
Битрейт : 384 Кбит/сек
Каналы : 6 каналов
Расположение каналов : Front: L C R, Side: L R, LFE
Частота : 48,0 КГц
Битовая глубина : 16 бит
Метод сжатия : С потерями
Размер потока : 118 Мбайт (8%)
Заголовок : English
Язык : English
Default : Нет
Forced : Нет
Текст #1
Идентификатор : 4
Формат : UTF-8
Идентификатор кодека : S_TEXT/UTF8
Идентификатор кодека/Информация : UTF-8 Plain Text
Заголовок : rus
Язык : Russian
Default : Нет
Forced : Нет
Текст #2
Идентификатор : 5
Формат : UTF-8
Идентификатор кодека : S_TEXT/UTF8
Идентификатор кодека/Информация : UTF-8 Plain Text
Заголовок : CC
Язык : English
Default : Нет
Forced : Нет
Внимание! Раздача ведётся путём добавления новых серий; при каждом добавлении создаётся новый торрент. Чтобы начать докачку новой серии, пользователям необходимо сделать следующее:
Остановить скачивание.
Удалить старый торрент у себя из клиента (старые серии удалять не надо).
Скачать новый торрент и запустить его у себя в клиенте вместо старого, при этом указать клиенту путь в старую папку куда и должно происходить скачивание новых серий.
Ваш клиент при этом должен произвести хеширование (проверку) старой папки (если не производит сам - помогите ему сделать это), и будет докачивать только те серии которых у вас ещё нет. Старые серии при этом не удаляются, а продолжают раздаваться!
Eсли вы уже удалили старые серии, то предотвратить повторную закачку старых серий можно, отжав галочку в соответсвующих местах при запуске нового торрента. По возможности, желательно не удалять старые серии как можно дольше чтобы релизёр не столько продолжал раздавать старые серии, а смог сконцентрироваться на новых.



Скачать Гримм.Grimm.(сезон.4).(Норберто.Барба.Дарнелл.Мартин.Дэвид.Соломон).[2014-2015.Ужасы.фэнтези.драма.детектив.WEB-DL.720p].MVO.(LostFilm.(DD.5.1)).+.Original.+.Subs.(rus+eng).torrent без регистрации
Золото ЗОЛОТАЯ РАЗДАЧА! СКАЧАННОЕ НЕ ЗАСЧИТЫВАЕТСЯ! Золото
Дата: Зарегистрирован   [ Тип: внутренний ] Как тут cкачать?
MAGNET ссылка
MAGNET ссылка


Скачать .torrent

81 KB

Статус: проверено DHT
Скачан: торрент - 456 раз, раздача полностью - 51 раз
Размер: 31,58 GB
Оценка:  5 (Голосов: 3)
Поблагодарили: 5
Поделиться ссылкой на эту раздачу с друзьями:
В контактеFacebookОдноклассникиTwitterLivejournalМой МирLiveinternet
 

 
Показать сообщения:    


Вы не можете начинать темы
Вы не можете отвечать на сообщения
Вы не можете редактировать свои сообщения
Вы не можете удалять свои сообщения
Вы не можете голосовать в опросах
Вы не можете прикреплять файлы к сообщениям
Вы можете скачивать файлы