Loading...
Error

Скачать Боги, наверное, сошли с ума 3: Безумное сафари / Река Сучжоу / Crazy Safari / Fei zhou he shang (Билли Чан) [1991, фэнтези, комедия, DVDRip] VO торрент без регистрации

 
Статистика раздачи
Размер:  1,37 GB   |    Скачан:  239 раз
Сидов:  1  [  0 KB/s  ]  
 
Автор Сообщение

МихаНЕзатор

[] 

Боги, наверное, сошли с ума 3: Безумное сафари /Река Сучжоу / Crazy Safari / Fei zhou he shang


Страна: Гонконг
Жанр: фэнтези, комедия
Год выпуска: 1991
Продолжительность: 01:32:09
Перевод: Одноголосый закадровый Jet
Cубтитры: нет
Режиссер: Билли Чан / Billy Chan

В ролях: Н!ксау, Чинг-Йинг Лам, Сэм Кристофер Чоу, Ланг Чан, Стивен Чоу, Пэдди О’Бирн, Мэн Тат ЭнДжи, Мишель Бестбье, Сауль Бамбергер, Джонатан Пиенаар, Грэм Армитаж, Питер Пау, Брюс Ли

Описание: Хи Синг и его племянник Лео покупают на аукционе мумию древнего китайского вампира аж 15-го века. Тем не менее он вполне еще оживляем, однако нужен он им не для этого, а для того, чтобы похоронить на родине — этот самый вампир является предком Лео. Но по дороге самолет терпит крушение, и вампир теряется, вывалившись где-то в южноафриканской пустыне. Там его подбирает племя бушменов под предводительством Ксау, и когда герои находят-таки своего предка, племя никоим образом не согласно отдать его — прыгающий сам по себе вампир ведь бесценная находка для таскания грузов, да и вообще вполне веселый парень, с которым играются местные детишки.



Качество видео: DVDRip
Формат видео: AVI
Видео: XviD, 704х400 пикс., 16:9, 23,976 кадр/сек, 1925 Кбит/сек
Аудио: AC-3, 48,0 КГц, 192 Кбит/сек, 2 канала

АНОНСЫ ПОПУЛЯРНЫХ РАЗДАЧ
Общее
Полное имя : D:\Фильмы на раздаче\Боги, наверное, сошли с ума 3.avi
Формат : AVI
Формат/Информация : Audio Video Interleave
Размер файла : 1,37 Гбайт
Продолжительность : 1 ч. 32 м.
Общий поток : 2124 Кбит/сек
Программа кодирования : VirtualDubMod 1.5.4.1 (build 2178/release)
Библиотека кодирования : VirtualDubMod build 2178/release
Видео
Идентификатор : 0
Формат : MPEG-4 Visual
Профиль формата : Simple@L3
Параметр BVOP формата : 1
Параметр QPel формата : Нет
Параметр GMC формата : Без точки перехода
Параметр матрицы формата : Выборочная
Идентификатор кодека : XVID
Идентификатор кодека/Подсказка : XviD
Продолжительность : 1 ч. 32 м.
Битрейт : 1925 Кбит/сек
Ширина : 704 пикс.
Высота : 400 пикс.
Соотношение сторон : 16:9
Частота кадров : 23,976 кадр/сек
Цветовое пространство : YUV
Подвыборка цветности : 4:2:0
Битовая глубина : 8 бит
Тип развёртки : Прогрессивная
Метод сжатия : С потерями
Бит/(Пиксели*Кадры) : 0.285
Размер потока : 1,24 Гбайт (91%)
Библиотека кодирования : XviD 1.0.1 (UTC 2004-06-05)
Аудио
Идентификатор : 1
Формат : AC-3
Формат/Информация : Audio Coding 3
Расширение режима : CM (complete main)
Идентификатор кодека : 2000
Продолжительность : 1 ч. 32 м.
Вид битрейта : Постоянный
Битрейт : 192 Кбит/сек
Каналы : 2 канала
Расположение каналов : Front: L R
Частота : 48,0 КГц
Битовая глубина : 16 бит
Метод сжатия : С потерями
Размер потока : 127 Мбайт (9%)
Выравнивание : Разделение по промежуткам
Продолжительность промежутка : 96 мс. (2,30 видеокадра)
Время предзагрузки промежутка : 96 ms
Язык : Russian



Скачать Боги.наверное.сошли.с.ума.3.Безумное.сафари.Река.Сучжоу.Crazy.Safari.Fei.zhou.he.shang.(Билли.Чан).[1991.фэнтези.комедия.DVDRip].VO.torrent без регистрации
Золото ЗОЛОТАЯ РАЗДАЧА! СКАЧАННОЕ НЕ ЗАСЧИТЫВАЕТСЯ! Золото
Дата: Зарегистрирован   [ Тип: внутренний ] Как тут cкачать?
MAGNET ссылка
MAGNET ссылка


Скачать .torrent

14 KB

Статус: проверено DHT
Скачан: торрент - 239 раз, раздача полностью - 182 раз
Размер: 1,37 GB
Оценка:  4 (Голосов: 1)
Поблагодарили: 5
Поделиться ссылкой на эту раздачу с друзьями:
В контактеFacebookОдноклассникиTwitterLivejournalМой МирLiveinternet
 

 
Показать сообщения:    


Вы не можете начинать темы
Вы не можете отвечать на сообщения
Вы не можете редактировать свои сообщения
Вы не можете удалять свои сообщения
Вы не можете голосовать в опросах
Вы не можете прикреплять файлы к сообщениям
Вы можете скачивать файлы