Loading...
Error

Скачать Боги, наверное, сошли с ума 4 / Сумасшедший (Безумный) Гонконг / The Gods Must Be Crazy IV / Heung Gong wun fung kwong / Crazy Hong Kong (Уэллсон Чин) [1993, комедия, приключения, DVDRip] MVO (Первый канал)+AVO (Визгунов) торрент без регистрации

 
Статистика раздачи
Размер:  1,45 GB   |    Скачан:  173 раза
Сидов:  1  [  0 KB/s  ]  
 
Автор Сообщение

МихаНЕзатор

[] 

Наверное, боги сошли с ума 4: Сумасшедший Гонконг
The Gods Must Be Crazy IV / Heung Gong wun fung kwong / Crazy Hong Kong


Страна: Гонконг
Жанр: комедия, приключения
Год выпуска: 1993
Продолжительность: 01:30:26
Перевод: Профессиональный (многоголосый закадровый) Первый канал
Перевод 2: Авторский (Одноголосый закадровый) Сергей Визгунов
Cубтитры: нет
Режиссер: Уэллсон Чин / Wellson Chin

В ролях: Н!ксау, Карина Лау, Майкл Чоу, Ман-Кин, Конрад Дженис, Чинг Ван Лау, Джеймс Пак, Сесилия Йип

Описание: Маленький бушмен, одетый в набедренную повязку и говорящий только на своем родном наречии, спасает от клыков льва богатую азиатскую бизнес-леди Ширли Ханг. В благодарность Ширли оставляет ему маленький сувенир и убывает в Гонконг на своем самолете.
Любознательный бушмен, желая понять назначение подарка, пытается отыскать Ширли и… попадает в багажное отделение ее самолета. Так наш герой оказывается в огромном незнакомом городе. Но как же теперь отыскать здесь Ширли?



Доп. информация: Рип с DVD5. (За исходник спасибо Ironwind (ADC)). Сравнение с : c [url=http://www. СПАМ / [url=http://www. СПАМ ресайза[/url]. Данный DVDRip проигрывает в детализации (вина исходника), однако не содержит логотипа телеканала, содержит AVO дорожку, немного отличается цветностью; в TVRip также использован не рекомендуемый Packed bitstream. Оставляю на усмотрение модератора.
За спасибо Sympho, за - deemeetry.

Качество видео: DVDRip
Формат видео: AVI
Видео: Xvid 624x480 AR 1.3 23.976fps 2058kbps
Аудио: MP3 48kHz 128kbps stereo - МVO Первый канал
Аудио 2: MP3 48kHz 96kbps mono - одноголосый

АНОНСЫ ПОПУЛЯРНЫХ РАЗДАЧ
Title:
Size: 3.98 Gb ( 4 170 411 KBytes ) - DVD-5
Enabled regions: 1, 2, 3, 4, 5, 6, 7, 8
VTS_01 :
Play Length: 00:00:10
Video: NTSC 4:3 (720x480) VBR
Audio:
English (Dolby AC3, 2 ch)
VTS_02 :
Play Length: 01:30:21
Video: NTSC 4:3 (720x480) VBR
Audio:
English (Dolby AC3, 2 ch)
VTS_03 :
Play Length: 00:08:08 00:02:28 00:00:48 00:00:46 00:01:11 00:00:38 00:00:41 00:00:47
Video: NTSC 4:3 (720x480) VBR
Audio:
English (Dolby AC3, 2 ch)
Menu Video:
NTSC 4:3 (720x480) VBR
Menu Subtitles:
Not specified
Menu English Language Unit :
Root Menu
malky@malky-desktop:~$ mediainfo /media/m/Heung.Gong.wun.fung.kwong.DVDRip.by.Malky.AllFilms.rutracker.org.avi
General
Complete name : /media/m/Heung.Gong.wun.fung.kwong.DVDRip.by.Malky.AllFilms.rutracker.org.avi
Format : AVI
Format/Info : Audio Video Interleave
File size : 1.45 GiB
Duration : 1h 30mn
Overall bit rate : 2 296 Kbps
Video
ID : 0
Format : MPEG-4 Visual
Format profile : Advanced Simple@L5
Format settings, BVOP : 2
Format settings, QPel : No
Format settings, GMC : No warppoints
Format settings, Matrix : Custom
Codec ID : XVID
Codec ID/Hint : XviD
Duration : 1h 30mn
Bit rate : 2 058 Kbps
Width : 624 pixels
Height : 480 pixels
Display aspect ratio : 1.300
Frame rate : 23.976 fps
Color space : YUV
Chroma subsampling : 4:2:0
Bit depth : 8 bits
Scan type : Progressive
Compression mode : Lossy
Bits/(Pixel*Frame) : 0.287
Stream size : 1.30 GiB (90%)
Writing library : XviD 64
Audio #1
ID : 1
Format : MPEG Audio
Format version : Version 1
Format profile : Layer 3
Codec ID : 55
Codec ID/Hint : MP3
Duration : 1h 30mn
Bit rate mode : Constant
Bit rate : 128 Kbps
Channel(s) : 2 channels
Sampling rate : 48.0 KHz
Compression mode : Lossy
Stream size : 82.8 MiB (6%)
Alignment : Aligned on interleaves
Interleave, duration : 42 ms (1.00 video frame)
Audio #2
ID : 2
Format : MPEG Audio
Format version : Version 1
Format profile : Layer 3
Codec ID : 55
Codec ID/Hint : MP3
Duration : 1h 30mn
Bit rate mode : Constant
Bit rate : 96.0 Kbps
Channel(s) : 1 channel
Sampling rate : 48.0 KHz
Compression mode : Lossy
Stream size : 62.1 MiB (4%)
Alignment : Aligned on interleaves
Interleave, duration : 42 ms (1.00 video frame)
Writing library : LAME3.98.4



Скачать Боги.наверное.сошли.с.ума.4.Сумасшедший.(Безумный).Гонконг.The.Gods.Must.Be.Crazy.IV.Heung.Gong.wun.fung.kwong.Crazy.Hong.Kong.(Уэллсон.Чин).[1993.комедия.приключения.DVDRip].MVO.(Первый.канал)+AVO.(Визгунов).torrent без регистрации
Золото ЗОЛОТАЯ РАЗДАЧА! СКАЧАННОЕ НЕ ЗАСЧИТЫВАЕТСЯ! Золото
Дата: Зарегистрирован   [ Тип: внутренний ] Как тут cкачать?
MAGNET ссылка
MAGNET ссылка


Скачать .torrent

30 KB

Статус: проверено DHT
Скачан: торрент - 173 раз, раздача полностью - 55 раз
Размер: 1,45 GB
Оценка:  4 (Голосов: 1)
Поблагодарили: 4
Поделиться ссылкой на эту раздачу с друзьями:
В контактеFacebookОдноклассникиTwitterLivejournalМой МирLiveinternet
 

 
Показать сообщения:    


Вы не можете начинать темы
Вы не можете отвечать на сообщения
Вы не можете редактировать свои сообщения
Вы не можете удалять свои сообщения
Вы не можете голосовать в опросах
Вы не можете прикреплять файлы к сообщениям
Вы можете скачивать файлы