Loading...
Error

Скачать Помнить всё / Незабываемое / Unforgettable (сезон 01) (Жан Де Сегонзак и др.) [2011, драма, криминал, WEB-DL] [720p] MVO (Домашний)+Original+rus sub торрент без регистрации

 
Статистика раздачи
Размер:  30,15 GB   |    Скачан:  156 раз

Полного источника не было: 22 минуты

 
Автор Сообщение

МихаНЕзатор

[] 


Помнить всё / Незабываемое / Unforgettable
(1х01-22 из 22)


Год выпуска: 2011
Страна: США
Жанр: драма, криминал
Продолжительность серии: ~00:43:00
Перевод: Профессиональный многоголосый закадровый, Домашний
Русские субтитры: есть (в 22-й серии отсутствуют)
Автор перевода: notabenoid
Субтитры: Русские, Английские
Режиссёр: Жан Де Сегонзак, Анна Ферстер, Нильс Арден Оплев

В ролях: Поппи Монтгомери, Дилан Уолш, Майкл Гэстон, Кевин О. Ранкин, Дая Вайдя, Carl Ducena, Том Стрэтфорд, Бриттни Лоуэр, Джейн Куртин, Кэрол Коммиссьонг

Описание: Драма о женщине-детективе Кэрри Уэлс, обладающей уникальной способностью помнить все, что когда-либо с ней происходило. Она прекрасно выполняет работу благодаря своему дару, но для личной жизни это настоящее проклятие. Правда, одну вещь Кэрри все же не помнит - день, когда ее сестра была убита.




Качество: WEB-DL 720p
Формат: MKV
Видео кодек: H.264
Аудио кодек: AC3
Видео: MPEG-4 AVC, 1280x720, 23.976 fps, ~4000 kbps, 0.18 bit/pixel
Аудио #1: Русский: 48 kHz, AC3, 2/0 (L,R) ch, ~192 kbps avg |Многоголосый закадровый, Домашний|
Аудио #2: Английский: 48 kHz, AC3, 3/2 (L,C,R,l,r) + LFE ch, ~384.00 kbps avg
Субтитры: Русские, Английские

АНОНСЫ ПОПУЛЯРНЫХ РАЗДАЧ

1. Pilot / Пилот
2. Heroes / Герои
3. Check Out Time / Время расчёта
4. Up In Flames / Опаленные любовью
5. With Honor / С честью
6. Friended / Друзья до гроба
7. Road Block / Камень преткновения
8. Lost Things / Пропавшие вещи
9. Golden Bird / Золотая птица
10. Trajectories / Траектории
11. Spirited Away / Унесённые призраками
12. Butterfly Effect / Эффект бабочки
13. Brotherhood / Братство
14. Carrie’s Caller / Анонимный звонок
15. The Following Sea / Попутная волна
16. Heartbreak / Разбитое сердце
17. Blind Alleys / Тупик
18. The Comeback / Возвращение
19. Allegiances / Преданность
20. You Are Here / Ты здесь
21. Endgame / Конец игры
22. The Man in the Woods / Человек в лесу
Цитата:"]General
General
Complete name : Unforgettable.S01E01.720p.WEB-DL.Rus.Eng.HDCLUB.mkv
Format : Matroska
Format version : Version 2
File size : 1.38 GiB
Duration : 44mn 1s
Overall bit rate : 4 493 Kbps
Movie name : Unforgettable [Season 1] (2011) - Release for HDCLUB
Encoded date : UTC 2012-05-01 20:06:15
Writing application : mkvmerge v5.5.0 ('Healer') built on Apr 6 2012 21:43:24
Writing library : libebml v1.2.3 + libmatroska v1.3.0
Video
ID : 1
Format : AVC
Format/Info : Advanced Video Codec
Format profile : High@L3.1
Format settings, CABAC : No
Format settings, ReFrames : 2 frames
Codec ID : V_MPEG4/ISO/AVC
Duration : 44mn 1s
Bit rate : 3 828 Kbps
Width : 1 280 pixels
Height : 720 pixels
Display aspect ratio : 16:9
Frame rate : 23.976 fps
Color space : YUV
Chroma subsampling : 4:2:0
Bit depth : 8 bits
Scan type : Progressive
Bits/(Pixel*Frame) : 0.173
Stream size : 1.18 GiB (85%)
Title : Unforgettable S01E01: Pilot / Пилот - Release for HDCLUB
Language : English
Default : Yes
Forced : No
Color primaries : BT.709-5, BT.1361, IEC 61966-2-4, SMPTE RP177
Transfer characteristics : BT.709-5, BT.1361
Matrix coefficients : BT.709-5, BT.1361, IEC 61966-2-4 709, SMPTE RP177
Audio #1
ID : 2
Format : AC-3
Format/Info : Audio Coding 3
Mode extension : CM (complete main)
Codec ID : A_AC3
Duration : 44mn 1s
Bit rate mode : Constant
Bit rate : 192 Kbps
Channel(s) : 2 channels
Channel positions : Front: L R
Sampling rate : 48.0 KHz
Bit depth : 16 bits
Compression mode : Lossy
Stream size : 60.5 MiB (4%)
Language : Russian
Default : Yes
Forced : No
Audio #2
ID : 3
Format : AC-3
Format/Info : Audio Coding 3
Mode extension : CM (complete main)
Codec ID : A_AC3
Duration : 44mn 1s
Bit rate mode : Constant
Bit rate : 384 Kbps
Channel(s) : 6 channels
Channel positions : Front: L C R, Side: L R, LFE
Sampling rate : 48.0 KHz
Bit depth : 16 bits
Compression mode : Lossy
Stream size : 121 MiB (9%)
Language : English
Default : No
Forced : No
Text #1
ID : 4
Format : UTF-8
Codec ID : S_TEXT/UTF8
Codec ID/Info : UTF-8 Plain Text
Language : Russian
Default : No
Forced : No
Text #2
ID : 5
Format : UTF-8
Codec ID : S_TEXT/UTF8
Codec ID/Info : UTF-8 Plain Text
Language : English
Default : No
Forced : No
Внимание! Раздача ведётся путём добавления новых серий, при каждом добавлении создаётся новый торрент. Чтобы начать докачку новой серии, пользователям необходимо сделать следующее:
(1) остановить скачивание,
(2) удалить старый торрент у себя из клиента (старые серии удалять не надо),
(3) скачать новый торрент и запустить его у себя в клиенте вместо старого, при этом указать клиенту путь в старую папку куда и должно происходить скачивание новых серий.
Ваш клиент при этом должен произвести хеширование (проверку) старой папки (если не производит сам - помогите ему сделать это), и будет докачивать только те серии которых у вас ещё нет. Старые серии при этом не удаляются, а продолжают раздаваться!
Если вы уже удалили старые серии, то предотвратить повторную закачку старых серий можно, отжав галочку в соответствующих местах при запуске нового торрента. По возможности, желательно не удалять старые серии как можно дольше чтобы релизёр не столько продолжал раздавать старые серии, а смог сконцентрироваться на новых.



Скачать Помнить.всё.Незабываемое.Unforgettable.(сезон.01).(Жан.Де.Сегонзак.и.др.).[2011.драма.криминал.WEB-DL].[720p].MVO.(Домашний)+Original+rus.sub.torrent без регистрации
Золото ЗОЛОТАЯ РАЗДАЧА! СКАЧАННОЕ НЕ ЗАСЧИТЫВАЕТСЯ! Золото
Дата: Зарегистрирован   [ Тип: внутренний ] Как тут cкачать?
MAGNET ссылка
MAGNET ссылка


Скачать .torrent

153 KB

Статус: проверено DHT
Скачан: торрент - 156 раз, раздача полностью - 8 раз
Размер: 30,15 GB
Оценка:  - (Голосов: 0)
Поблагодарили: 0
Поделиться ссылкой на эту раздачу с друзьями:
В контактеFacebookОдноклассникиTwitterLivejournalМой МирLiveinternet
 

 
Показать сообщения:    


Вы не можете начинать темы
Вы не можете отвечать на сообщения
Вы не можете редактировать свои сообщения
Вы не можете удалять свои сообщения
Вы не можете голосовать в опросах
Вы не можете прикреплять файлы к сообщениям
Вы можете скачивать файлы