Loading...
Error

Скачать Бешеный бык / Raging Bull (Мартин Скорсезе) [1980, драма, биография, спорт, BDRip-AVC] [MVO]x3+[DVO]x2+[AVO]x4+[Sub]x3 торрент без регистрации

 
Статистика раздачи
Размер:  6,27 GB   |    Скачан:  117 раз

Полного источника не было: 27 минут

 
Автор Сообщение

Marsianka

[] 

Информация о фильме
Название: Бешеный бык
Оригинальное название: Raging Bull
Год выхода: 1980
Жанр: драма, биография, спорт
Режиссер: Мартин Скорсезе
В ролях: Роберт Де Ниро, Кэти Мориарти, Джо Пеши, Фрэнк Винсент, Николас Коласанто, Тереза Салдана, Марио Галло, Фрэнк Адонис, Джозеф Боно, Фрэнк Топхэм

О фильме: Джейк ЛаМотта, получивший прозвище Бронксский Бык, — боксер. И все его психологические и сексуальные комплексы яростно извергаются на боксерском ринге. Под горячую руку ему попадается родной брат, ставший жертвой навязчивой паранойи и ревности Джейка, а также пятнадцатилетняя девочка, которой суждено было стать самой главной наградой Джейка… и преследующим его наваждением.



Страна: США
Студия: Chartoff-Winkler Productions, United Artists
Продолжительность: 02:09:04
Перевод: Профессиональный многоголосый, профессиональный двухголосый, авторский одноголосый (Иванов), (Чадов), (Визгунов), (Сербин)

Файл
Кодек: MPEG-4 AVC
Качество: BDRip-AVC
Видео: 3500 Кбит/с, 1024x556, 23.976 кадр/с

Семпл
Аудио #1: Русский (AC3, 6 ch, 448 Кбит/с) / Профессиональный многоголосый
Аудио #2: Русский (AC3, 2 ch, 192 Кбит/с) / Профессиональный двухголосый (SDI Media)
Аудио #3: Русский (AC3, 2 ch, 192 Кбит/с) / Профессиональный двухголосый (НТВ+)
Аудио #4: Русский (AC3, 2 ch, 192 Кбит/с) / Авторский одноголосый (Иванов)
Аудио #5: Русский (AC3, 6 ch, 448 Кбит/с) / Авторский одноголосый (Чадов)
Аудио #6: Русский (AC3, 6 ch, 448 Кбит/с) / Авторский одноголосый (Визгунов)
Аудио #7: Русский (AC3, 6 ch, 448 Кбит/с) / Авторский одноголосый (Сербин)
Аудио #8: Украинский (AC3, 6 ch, 448 Кбит/с) / Профессиональный многоголосый (Омикрон)
Аудио #9: Украинский (AC3, 2 ch, 192 Кбит/с) / Профессиональный многоголосый (Enter-фильм)
Аудио #10: Английский (AC3, 6 ch, 448 Кбит/с)
Субтитры: Русские, английские, английские (SDH)
Общее
Уникальный идентификатор : 213398749404400335241511953220867275194 (0xA08B1AAA0D0DEB43B15EC36FC7ED39BA)
Полное имя : D:Мои РипыBeshenyj.Byk.1980.x264.BDRip.AVC.MediaClub.mkv
Формат : Matroska
Версия формата : Version 4 / Version 2
Размер файла : 6,27 Гбайт
Продолжительность : 2 ч. 9 м.
Общий поток : 6959 Кбит/сек
Название фильма : = MediaClub = rip by krakatuq
Дата кодирования : UTC 2014-11-05 17:48:01
Программа кодирования : mkvmerge v6.6.0 ('The Edge Of The In Between') built on Dec 1 2013 17:55:00
Библиотека кодирования : libebml v1.3.0 + libmatroska v1.4.1

Видео
Идентификатор : 1
Формат : AVC
Формат/Информация : Advanced Video Codec
Профиль формата : High@L4.1
Параметр CABAC формата : Да
Параметр ReFrames формата : 9 кадров
Идентификатор кодека : V_MPEG4/ISO/AVC
Продолжительность : 2 ч. 9 м.
Битрейт : 3500 Кбит/сек
Ширина : 1024 пикселя
Высота : 556 пикселей
Соотношение сторон : 1,85:1
Режим частоты кадров : Постоянный
Частота кадров : 23,976 кадра/сек
Цветовое пространство : YUV
Субдискретизация насыщенности : 4:2:0
Битовая глубина : 8 бит
Тип развёртки : Прогрессивная
Бит/(Пиксели*Кадры) : 0.256
Размер потока : 3,03 Гбайт (48%)
Заголовок : Beshenyj.Byk.1980.x264.BDRip.AVC.MediaClub
Библиотека кодирования : x264 core 142 r2409+42 04be48a tMod [8-bit@4:2:0 X86]
Настройки программы : cabac=1 / ref=9 / deblock=1:-3:-3 / analyse=0x3:0x133 / me=umh / subme=11 / psy=1 / fade_compensate=0.00 / psy_rd=1.00:0.25 / mixed_ref=1 / me_range=32 / chroma_me=1 / trellis=2 / 8x8dct=1 / cqm=0 / deadzone=21,11 / fast_pskip=0 / chroma_qp_offset=-4 / threads=3 / lookahead_threads=1 / sliced_threads=0 / nr=0 / decimate=0 / interlaced=0 / bluray_compat=0 / constrained_intra=0 / fgo=0 / bframes=10 / b_pyramid=2 / b_adapt=2 / b_bias=0 / direct=3 / weightb=1 / open_gop=0 / weightp=2 / keyint=240 / keyint_min=23 / scenecut=40 / intra_refresh=0 / rc=2pass / mbtree=0 / bitrate=3500 / ratetol=1.0 / qcomp=0.60 / qpmin=0:0:0 / qpmax=69:69:69 / qpstep=4 / cplxblur=20.0 / qblur=0.5 / ip_ratio=1.40 / pb_ratio=1.30 / aq=1:1.00 / aq-sensitivity=10.00 / aq-factor=1.00:1.00:1.00 / aq2=0 / aq3=0
Язык : English
Default : Да
Forced : Нет

Аудио #1
Идентификатор : 2
Формат : AC-3
Формат/Информация : Audio Coding 3
Расширение режима : CM (complete main)
Параметр Endianness формата : Big
Идентификатор кодека : A_AC3
Продолжительность : 2 ч. 9 м.
Вид битрейта : Постоянный
Битрейт : 448 Кбит/сек
Каналы : 6 каналов
Расположение каналов : Front: L C R, Side: L R, LFE
Частота : 48,0 КГц
Битовая глубина : 16 бит
Метод сжатия : С потерями
Размер потока : 414 Мбайт (6%)
Заголовок : TRACK_01_MVO_RUS
Язык : Russian
Default : Да
Forced : Да

Аудио #2
Идентификатор : 3
Формат : AC-3
Формат/Информация : Audio Coding 3
Расширение режима : CM (complete main)
Параметр Endianness формата : Big
Идентификатор кодека : A_AC3
Продолжительность : 2 ч. 9 м.
Вид битрейта : Постоянный
Битрейт : 192 Кбит/сек
Каналы : 2 канала
Расположение каналов : Front: L R
Частота : 48,0 КГц
Битовая глубина : 16 бит
Метод сжатия : С потерями
Размер потока : 177 Мбайт (3%)
Заголовок : TRACK_02_DVO_RUS_SDI Media
Язык : Russian
Default : Нет
Forced : Нет

Аудио #3
Идентификатор : 4
Формат : AC-3
Формат/Информация : Audio Coding 3
Расширение режима : CM (complete main)
Параметр Endianness формата : Big
Идентификатор кодека : A_AC3
Продолжительность : 2 ч. 9 м.
Вид битрейта : Постоянный
Битрейт : 192 Кбит/сек
Каналы : 2 канала
Расположение каналов : Front: L R
Частота : 48,0 КГц
Битовая глубина : 16 бит
Метод сжатия : С потерями
Размер потока : 177 Мбайт (3%)
Заголовок : TRACK_03_DVO_RUS_НТВ+
Язык : Russian
Default : Нет
Forced : Нет

Аудио #4
Идентификатор : 5
Формат : AC-3
Формат/Информация : Audio Coding 3
Расширение режима : CM (complete main)
Параметр Endianness формата : Big
Идентификатор кодека : A_AC3
Продолжительность : 2 ч. 9 м.
Вид битрейта : Постоянный
Битрейт : 192 Кбит/сек
Каналы : 2 канала
Расположение каналов : Front: L R
Частота : 48,0 КГц
Битовая глубина : 16 бит
Метод сжатия : С потерями
Размер потока : 177 Мбайт (3%)
Заголовок : TRACK_04_AVO_RUS_IVANOV
Язык : Russian
Default : Нет
Forced : Нет

Аудио #5
Идентификатор : 6
Формат : AC-3
Формат/Информация : Audio Coding 3
Расширение режима : CM (complete main)
Параметр Endianness формата : Big
Идентификатор кодека : A_AC3
Продолжительность : 2 ч. 9 м.
Вид битрейта : Постоянный
Битрейт : 448 Кбит/сек
Каналы : 6 каналов
Расположение каналов : Front: L C R, Side: L R, LFE
Частота : 48,0 КГц
Битовая глубина : 16 бит
Метод сжатия : С потерями
Размер потока : 414 Мбайт (6%)
Заголовок : TRACK_05_AVO_RUS_CHADOV
Язык : Russian
Default : Нет
Forced : Нет

Аудио #6
Идентификатор : 7
Формат : AC-3
Формат/Информация : Audio Coding 3
Расширение режима : CM (complete main)
Параметр Endianness формата : Big
Идентификатор кодека : A_AC3
Продолжительность : 2 ч. 9 м.
Вид битрейта : Постоянный
Битрейт : 448 Кбит/сек
Каналы : 6 каналов
Расположение каналов : Front: L C R, Side: L R, LFE
Частота : 48,0 КГц
Битовая глубина : 16 бит
Метод сжатия : С потерями
Размер потока : 414 Мбайт (6%)
Заголовок : TRACK_06_AVO_RUS_VIZGUNOV
Язык : Russian
Default : Нет
Forced : Нет

Аудио #7
Идентификатор : 8
Формат : AC-3
Формат/Информация : Audio Coding 3
Расширение режима : CM (complete main)
Параметр Endianness формата : Big
Идентификатор кодека : A_AC3
Продолжительность : 2 ч. 9 м.
Вид битрейта : Постоянный
Битрейт : 448 Кбит/сек
Каналы : 6 каналов
Расположение каналов : Front: L C R, Side: L R, LFE
Частота : 48,0 КГц
Битовая глубина : 16 бит
Метод сжатия : С потерями
Размер потока : 414 Мбайт (6%)
Заголовок : TRACK_07_AVO_RUS_SERBIN
Язык : Russian
Default : Нет
Forced : Нет

Аудио #8
Идентификатор : 9
Формат : AC-3
Формат/Информация : Audio Coding 3
Расширение режима : CM (complete main)
Параметр Endianness формата : Big
Идентификатор кодека : A_AC3
Продолжительность : 2 ч. 9 м.
Вид битрейта : Постоянный
Битрейт : 448 Кбит/сек
Каналы : 6 каналов
Расположение каналов : Front: L C R, Side: L R, LFE
Частота : 48,0 КГц
Битовая глубина : 16 бит
Метод сжатия : С потерями
Размер потока : 414 Мбайт (6%)
Заголовок : TRACK_08_MVO_UKR_Омикрон
Язык : Ukrainian
Default : Нет
Forced : Нет

Аудио #9
Идентификатор : 10
Формат : AC-3
Формат/Информация : Audio Coding 3
Расширение режима : CM (complete main)
Параметр Endianness формата : Big
Идентификатор кодека : A_AC3
Продолжительность : 2 ч. 9 м.
Вид битрейта : Постоянный
Битрейт : 192 Кбит/сек
Каналы : 2 канала
Расположение каналов : Front: L R
Частота : 48,0 КГц
Битовая глубина : 16 бит
Метод сжатия : С потерями
Размер потока : 177 Мбайт (3%)
Заголовок : TRACK_09_MVO_UKR_Enter-фильм
Язык : Ukrainian
Default : Нет
Forced : Нет

Аудио #10
Идентификатор : 11
Формат : AC-3
Формат/Информация : Audio Coding 3
Расширение режима : CM (complete main)
Параметр Endianness формата : Big
Идентификатор кодека : A_AC3
Продолжительность : 2 ч. 9 м.
Вид битрейта : Постоянный
Битрейт : 448 Кбит/сек
Каналы : 6 каналов
Расположение каналов : Front: L C R, Side: L R, LFE
Частота : 48,0 КГц
Битовая глубина : 16 бит
Метод сжатия : С потерями
Размер потока : 414 Мбайт (6%)
Заголовок : TRACK_10_ORIGINAL_ENG
Язык : English
Default : Нет
Forced : Нет

Текст #1
Идентификатор : 12
Формат : UTF-8
Идентификатор кодека : S_TEXT/UTF8
Идентификатор кодека/Информация : UTF-8 Plain Text
Заголовок : TEXT_01_SUB_RUS
Язык : Russian
Default : Нет
Forced : Нет

Текст #2
Идентификатор : 13
Формат : UTF-8
Идентификатор кодека : S_TEXT/UTF8
Идентификатор кодека/Информация : UTF-8 Plain Text
Заголовок : TEXT_02_SUB_ENG
Язык : English
Default : Нет
Forced : Нет

Текст #3
Идентификатор : 14
Формат : UTF-8
Идентификатор кодека : S_TEXT/UTF8
Идентификатор кодека/Информация : UTF-8 Plain Text
Заголовок : TEXT_03_SUB_ENG_SDH
Язык : English
Default : Нет
Forced : Нет

Меню
00:00:00.000 : en:Main Title
00:02:52.630 : en:1964: That's Entertainment
00:04:05.286 : en:1941: Pounding Reeves
00:07:40.960 : en:A Talk with the Animal
00:11:26.519 : en:"Hit Me in the Face"
00:15:04.153 : en:Unwelcome Spectators
00:17:14.241 : en:Vickie By the Pool
00:24:06.570 : en:A Date with the Champ
00:26:54.738 : en:Sitting a Little Closer
00:31:23.715 : en:1943: Sugar Ray Robinson
00:33:19.455 : en:Kissing It Better
00:38:03.864 : en:1943: Robinson for the 3
00:41:16.724 : en:Fights and Home Movies
00:43:51.211 : en:1947: A Win-Win Plan
00:49:29.216 : en:Watchful Eye on Vickie
00:57:01.376 : en:Janiro - Pretty No More
00:59:03.581 : en:"Nothing Goin; on?"
01:03:01.486 : en:A Lack of Respect
01:06:27.191 : en:"I Just Wanna Catch Her"
01:09:14.567 : en:1947: Going Down for Fox
01:13:40.416 : en:1949: Slapped in the Face
01:18:21.655 : en:Attack on Cerdan
01:22:05.837 : en:1950: A Crazy Question
01:28:30.388 : en:Fat Pig Selfish Fool
01:33:53.586 : en:Dauthuille: The Comeback
01:37:07.279 : en:Last Time with Sugar Ray
01:41:34.046 : en:1956: Happy and Retired
01:42:52.416 : en:Raging Entertainer
01:48:17.991 : en:"I'm Leaving You, Jake"
01:50:31.750 : en:Not a 14-Year-Old
01:52:08.805 : en:$10,000 From the Belt
01:53:58.623 : en:1957: Fist on Concrete
01:57:06.853 : en:1958: A Joke for a Drink
01:58:57.755 : en:No Friend in Joey
02:01:02.630 : en:Coulda Been a Contender
02:03:57.430 : en:"Now I Can See""/Credits

x264 log
x264 [info]: frame I:1141 Avg QP:16.70 size: 69297
x264 [info]: frame P:41744 Avg QP:19.61 size: 32206
x264 [info]: frame B:142781 Avg QP:21.39 size: 13749
Релиз от:

Автор рипа:



Скачать Бешеный.бык.Raging.Bull.(Мартин.Скорсезе).[1980.драма.биография.спорт.BDRip-AVC].[MVO]x3+[DVO]x2+[AVO]x4+[Sub]x3.torrent без регистрации
Золото ЗОЛОТАЯ РАЗДАЧА! СКАЧАННОЕ НЕ ЗАСЧИТЫВАЕТСЯ! Золото
Дата: Зарегистрирован   [ Тип: внутренний ] Как тут cкачать?
MAGNET ссылка
MAGNET ссылка


Скачать .torrent

32 KB

Статус: проверено DHT
Скачан: торрент - 117 раз, раздача полностью - 3 раз
Размер: 6,27 GB
Оценка:  - (Голосов: 0)
Поблагодарили: 2
Поделиться ссылкой на эту раздачу с друзьями:
В контактеFacebookОдноклассникиTwitterLivejournalМой МирLiveinternet
 

 
Показать сообщения:    


Вы не можете начинать темы
Вы не можете отвечать на сообщения
Вы не можете редактировать свои сообщения
Вы не можете удалять свои сообщения
Вы не можете голосовать в опросах
Вы не можете прикреплять файлы к сообщениям
Вы можете скачивать файлы