Loading...
Error

Скачать На греческой улице / The House on Sorority Row (Марк Росман) [1983, ужасы, триллер, детектив, BDRip-AVC] [DVO] торрент без регистрации

 
Статистика раздачи
Размер:  1,09 GB   |    Скачан:  118 раз
Сидов:  1  [  0 KB/s  ]  
 
Автор Сообщение

Marsianka

[] 

На греческой улице / The House on Sorority Row (1983) BDRip-AVC

Информация о фильме
Название: На греческой улице
Оригинальное название: The House on Sorority Row
Год выхода: 1983
Жанр: ужасы, триллер, детектив
Режиссер: Марк Росман

В ролях: Кейт МакНил, Эйлин Дэвидсон, Дженис Уорд, Робин Мелой, Харли Джейн Козак, Джоди Дрэйджи, Эллен Доршер, Луис Келсо Хант, Кристофер Лоуренс, Майкл Кун...

О фильме: Семеро девчонок собираются устроить грандиозную вечеринку, посвященную окончанию учебного заведения. Но когда комендант общежития миссис Слейтер узнает об этом, она выгоняет девочек, сказав, что вечеринки не будет и они должны покинуть дом на следующий же день. Но девушки решают подшутить над старой женщиной, что оборачивается трагедией: миссис Слейтер погибает. Девочки перепугались не на шутку и боятся звонить в полицию, считая, что им грозит тюрьма. Поэтому они решают скинуть труп женщины в плавательный бассейн, выдав ее смерть за несчастный случай. Но это было плохой затеей, так как кто-то видел, как девчонки убили женщину, и теперь устраивает на них кровавую охоту.



Страна: США
Продолжительность: 01:31:53
Перевод: Профессиональный (двухголосый закадровый)

Файл
Кодек: x.264
Качество: BDRip-AVC
Видео: 928x528 (16:9), 23,976 fps, 1507 kbps, 0.128 bit/pixel
Звук: 48 kHz, AC3 Dolby Digital, 2 ch, ~192.00 kbps

Общее
Уникальный идентификатор : 249149687629631948344564620824792468595 (0xBB707C01E79A74F1938B502D046B0C73)
Полное имя : D:The House on Sorority Row.1983.BDRip-AVC.mkv
Формат : Matroska
Версия формата : Version 4 / Version 2
Размер файла : 1,09 Гбайт
Продолжительность : 1 ч. 31 м.
Общий поток : 1699 Кбит/сек
Название фильма : Дом на Греческой улице / The House on Sorority Row (1983) BDRip-AVC rip by Rulya74
Дата кодирования : UTC 2014-11-06 13:46:30
Программа кодирования : mkvmerge v7.3.0 ('Nouages') 64bit built on Oct 22 2014 18:53:34
Библиотека кодирования : libebml v1.3.0 + libmatroska v1.4.1

Видео
Идентификатор : 1
Формат : AVC
Формат/Информация : Advanced Video Codec
Профиль формата : High@L4.1
Параметр CABAC формата : Да
Параметр ReFrames формата : 10 кадров
Идентификатор кодека : V_MPEG4/ISO/AVC
Продолжительность : 1 ч. 31 м.
Битрейт : 1507 Кбит/сек
Ширина : 928 пикселей
Высота : 528 пикселей
Соотношение сторон : 16:9
Режим частоты кадров : Постоянный
Частота кадров : 23,976 кадра/сек
Цветовое пространство : YUV
Субдискретизация насыщенности : 4:2:0
Битовая глубина : 8 бит
Тип развёртки : Прогрессивная
Бит/(Пиксели*Кадры) : 0.128
Размер потока : 968 Мбайт (87%)
Библиотека кодирования : x264 core 142 r2431 ac76440
Настройки программы : cabac=1 / ref=10 / deblock=1:-1:-1 / analyse=0x3:0x113 / me=umh / subme=11 / psy=1 / psy_rd=1.00:0.00 / mixed_ref=1 / me_range=48 / chroma_me=1 / trellis=2 / 8x8dct=1 / cqm=0 / deadzone=21,11 / fast_pskip=0 / chroma_qp_offset=-2 / threads=4 / lookahead_threads=1 / sliced_threads=0 / nr=0 / decimate=1 / interlaced=0 / bluray_compat=0 / constrained_intra=0 / bframes=5 / b_pyramid=2 / b_adapt=1 / b_bias=0 / direct=3 / weightb=1 / open_gop=0 / weightp=2 / keyint=240 / keyint_min=23 / scenecut=40 / intra_refresh=0 / rc_lookahead=40 / rc=2pass / mbtree=1 / bitrate=1507 / ratetol=1.0 / qcomp=0.60 / qpmin=0 / qpmax=69 / qpstep=4 / cplxblur=20.0 / qblur=0.5 / vbv_maxrate=62500 / vbv_bufsize=78125 / nal_hrd=none / filler=0 / ip_ratio=1.40 / aq=1:1.00
Default : Да
Forced : Нет

Аудио
Идентификатор : 2
Формат : AC-3
Формат/Информация : Audio Coding 3
Расширение режима : CM (complete main)
Параметр Endianness формата : Big
Идентификатор кодека : A_AC3
Продолжительность : 1 ч. 31 м.
Вид битрейта : Постоянный
Битрейт : 192 Кбит/сек
Каналы : 2 канала
Расположение каналов : Front: L R
Частота : 48,0 КГц
Битовая глубина : 16 бит
Метод сжатия : С потерями
Размер потока : 126 Мбайт (11%)
Заголовок : Профессиональный (двухголосый закадровый)
Язык : Russian
Default : Да
Forced : Нет



Скачать На.греческой.улице.The.House.on.Sorority.Row.(Марк.Росман).[1983.ужасы.триллер.детектив.BDRip-AVC].[DVO].torrent без регистрации
Золото ЗОЛОТАЯ РАЗДАЧА! СКАЧАННОЕ НЕ ЗАСЧИТЫВАЕТСЯ! Золото
Дата: Зарегистрирован   [ Тип: внутренний ] Как тут cкачать?
MAGNET ссылка
MAGNET ссылка


Скачать .torrent

11 KB

Статус: проверено DHT
Скачан: торрент - 118 раз, раздача полностью - 9 раз
Размер: 1,09 GB
Оценка:  4 (Голосов: 1)
Поблагодарили: 1
Поделиться ссылкой на эту раздачу с друзьями:
В контактеFacebookОдноклассникиTwitterLivejournalМой МирLiveinternet
 

 

19Soldier78

[] 

Неплохой триллерок, хоть и наигран
 
Показать сообщения:    


Вы не можете начинать темы
Вы не можете отвечать на сообщения
Вы не можете редактировать свои сообщения
Вы не можете удалять свои сообщения
Вы не можете голосовать в опросах
Вы не можете прикреплять файлы к сообщениям
Вы можете скачивать файлы