Loading...
Error

Скачать 12 разгневанных мужчин / 12 Angry Men (Сидни Люмет) [1957, драма, BDRip-AVC] [MVO]+[Sub]x2 торрент без регистрации

 
Статистика раздачи
Размер:  2,45 GB   |    Скачан:  102 раза
Сидов:  1  [  0 KB/s  ]  
 
Автор Сообщение

Marsianka

[] 

Информация о фильме
Название: 12 разгневанных мужчин
Оригинальное название: 12 Angry Men
Год выхода: 1957
Жанр: драма
Режиссер: Сидни Люмет
В ролях: Генри Фонда, Мартин Болсам, Джон Фидлер, Ли Дж. Кобб, Э. Г. Маршалл, Джек Клагмен, Эд Биннс, Джек Уорден, Джозеф Суини, Эд Бегли

О фильме:
Юношу обвиняют в убийстве собственного отца, ему грозит электрический стул. Двенадцать присяжных собираются чтобы вынести вердикт: виновен или нет.С начала заседания почти все склонились к тому, что виновен, и лишь только один из двенадцати позволил себе усомниться. Счет голосов присяжных по принципу «виновен — невиновен» был 11:1. К концу собрания мнения судей кардинально изменились...



Страна: США, Orion-Nova Productions
Продолжительность: 01:36:21
Перевод: Профессиональный многоголосый
Субтитры: Русские, английские
Дата релиза: 06.11.2014

Файл
Кодек: H.264
Качество: BDRip (AVC)
Видео: MPEG-4 AVC, 3248 Кбит/с, 960x576
Звук: Русский (AC3, 2 ch, 192 Кбит/с), английский (AC3, 1 ch, 192 Кбит/с)
Общее
Уникальный идентификатор : 221753772455332872923722975883977144979 (0xA6D4391ACDFAF62F979B6A87642DBA93)
Полное имя : D:712.razgnevannih.mugchin.1957.x264.BDRip.(AVC).ExKinoRay.mkv
Формат : Matroska
Размер файла : 2,45 Гбайт
Продолжительность : 1 ч. 36 м.
Общий поток : 3634 Кбит/сек
Название фильма : 12.razgnevannih.mugchin.1957.x264.BDRip.(AVC).ExKinoRay
Дата кодирования : UTC 2014-11-06 17:29:08
Программа кодирования : mkvmerge v4.0.0 ('The Stars were mine') сборка от Jun 6 2010 16:18:42
Библиотека кодирования : libebml v1.0.0 + libmatroska v1.0.0

Видео
Идентификатор : 1
Формат : AVC
Формат/Информация : Advanced Video Codec
Профиль формата : High@L4.1
Параметр CABAC формата : Да
Параметр ReFrames формата : 8 кадров
Идентификатор кодека : V_MPEG4/ISO/AVC
Продолжительность : 1 ч. 36 м.
Битрейт : 3248 Кбит/сек
Ширина : 960 пикс.
Высота : 576 пикс.
Соотношение сторон : 1,667
Частота кадров : 23,976 кадр/сек
Цветовое пространство : YUV
Подвыборка цветности : 4:2:0
Битовая глубина : 8 бит
Тип развёртки : Прогрессивная
Бит/(Пиксели*Кадры) : 0.245
Размер потока : 2,14 Гбайт (87%)
Заголовок : Rip by Enigma-Vladislav71
Библиотека кодирования : x264 core 125 r2208 d9d2288
Настройки программы : cabac=1 / ref=8 / deblock=1:-2:-2 / analyse=0x3:0x133 / me=umh / subme=11 / psy=1 / psy_rd=1.00:0.00 / mixed_ref=1 / me_range=48 / chroma_me=1 / trellis=2 / 8x8dct=1 / cqm=0 / deadzone=21,11 / fast_pskip=0 / chroma_qp_offset=-2 / threads=3 / lookahead_threads=1 / sliced_threads=0 / nr=0 / decimate=0 / interlaced=0 / bluray_compat=0 / constrained_intra=0 / bframes=8 / b_pyramid=2 / b_adapt=2 / b_bias=0 / direct=3 / weightb=1 / open_gop=0 / weightp=2 / keyint=240 / keyint_min=23 / scenecut=40 / intra_refresh=0 / rc=2pass / mbtree=0 / bitrate=3248 / ratetol=1.0 / qcomp=0.60 / qpmin=10 / qpmax=51 / qpstep=4 / cplxblur=20.0 / qblur=0.5 / ip_ratio=1.40 / pb_ratio=1.30 / aq=1:1.00
Язык : English

Аудио #1
Идентификатор : 2
Формат : AC-3
Формат/Информация : Audio Coding 3
Расширение режима : CM (complete main)
Идентификатор кодека : A_AC3
Продолжительность : 1 ч. 36 м.
Вид битрейта : Постоянный
Битрейт : 192 Кбит/сек
Каналы : 2 канала
Расположение каналов : Front: L R
Частота : 48,0 КГц
Битовая глубина : 16 бит
Метод сжатия : С потерями
Размер потока : 132 Мбайт (5%)
Язык : Russian

Аудио #2
Идентификатор : 3
Формат : AC-3
Формат/Информация : Audio Coding 3
Расширение режима : CM (complete main)
Идентификатор кодека : A_AC3
Продолжительность : 1 ч. 36 м.
Вид битрейта : Постоянный
Битрейт : 192 Кбит/сек
Каналы : 1 канал
Расположение каналов : Front: C
Частота : 48,0 КГц
Битовая глубина : 16 бит
Метод сжатия : С потерями
Размер потока : 132 Мбайт (5%)
Язык : English

Текст #1
Идентификатор : 4
Формат : UTF-8
Идентификатор кодека : S_TEXT/UTF8
Идентификатор кодека/Информация : UTF-8 Plain Text
Язык : Russian

Текст #2
Идентификатор : 5
Формат : UTF-8
Идентификатор кодека : S_TEXT/UTF8
Идентификатор кодека/Информация : UTF-8 Plain Text
Язык : English

Меню
00:00:00.000 : en:00:00:00.000
00:05:45.345 : en:00:05:45.345
00:11:57.342 : en:00:11:57.342
00:15:20.920 : en:00:15:20.920
00:18:46.292 : en:00:18:46.292
00:24:02.066 : en:00:24:02.066
00:30:56.855 : en:00:30:56.855
00:34:45.250 : en:00:34:45.250
00:39:33.371 : en:00:39:33.371
00:48:22.900 : en:00:48:22.900
00:52:04.121 : en:00:52:04.121
00:53:20.823 : en:00:53:20.823
00:59:42.078 : en:00:59:42.078
01:08:28.688 : en:01:08:28.688
01:12:35.518 : en:01:12:35.518
01:17:56.046 : en:01:17:56.046
01:21:25.881 : en:01:21:25.881
01:29:09.886 : en:01:29:09.886
Релиз от:
Авторы релиза:



Скачать 12.разгневанных.мужчин.12.Angry.Men.(Сидни.Люмет).[1957.драма.BDRip-AVC].[MVO]+[Sub]x2.torrent без регистрации
Золото ЗОЛОТАЯ РАЗДАЧА! СКАЧАННОЕ НЕ ЗАСЧИТЫВАЕТСЯ! Золото
Дата: Зарегистрирован   [ Тип: внутренний ] Как тут cкачать?
MAGNET ссылка
MAGNET ссылка


Скачать .torrent

13 KB

Статус: проверено DHT
Скачан: торрент - 102 раз, раздача полностью - 5 раз
Размер: 2,45 GB
Оценка:  5 (Голосов: 1)
Поблагодарили: 2
Поделиться ссылкой на эту раздачу с друзьями:
В контактеFacebookОдноклассникиTwitterLivejournalМой МирLiveinternet
 

 
Показать сообщения:    


Вы не можете начинать темы
Вы не можете отвечать на сообщения
Вы не можете редактировать свои сообщения
Вы не можете удалять свои сообщения
Вы не можете голосовать в опросах
Вы не можете прикреплять файлы к сообщениям
Вы можете скачивать файлы