Loading...
Error

Скачать Шестое чувство / The Sixth Sense (М. Найт Шьямалан) [1999, мистический триллер, драма, детектив, BDRip-AVC] [Dub]+[MVO]+[AVO]x4+[Sub]x2 торрент без регистрации

 
Статистика раздачи
Размер:  3,31 GB   |    Скачан:  175 раз

Полного источника не было: 19 минут

 
Автор Сообщение

Marsianka

[] 

Информация о фильме
Название: Шестое чувство
Оригинальное название: The Sixth Sense
Год выхода: 1999
Жанр: мистический триллер, драма, детектив
Режиссер: М. Найт Шьямалан
В ролях: Брюс Уиллис, Хэйли Джоэл Осмент, Тони Коллетт, Оливия Уильямс, Донни Уолберг, Питер Энтони Тамбакис, Джеффри Зубернис, Брюс Норрис, Гленн Фицджералд, Грег Вуд, КаДи Стрикленд

О фильме:
Детский психиатр Малкольм Кроу сталкивается со странным случаем: девятилетнего Коула посещают страшные видения — призраки умерших. Все эти люди когда-то были убиты, и теперь они обрушивают на малыша свой гнетущий страх и отчаянный гнев. Как врач, Малкольм бессилен помочь. Но как человек, он пытается найти ключ к ужасному миру Коула, в котором веет дыхание смерти и распускаются страшные цветы боли.



Страна: США
Студия: Barry Mendel Productions, Hollywood Pictures, Spyglass Entertainment, The Kennedy/Marshall Company
Продолжительность: 01:47:29
Перевод: Дублированный, профессиональный (многоголосый закадровый), авторский (одноголосый закадровый)

Файл
Кодек: h.264
Качество: BDRip-AVC
Видео: 2299 Кбит/с, 1024x576, 23.976 кадр/с
• №1: Русский (АС3, 6 ch, 384 Кбит/с) Дублированный
• №2: Русский (АС3, 6 ch, 384 Кбит/с) Профессиональный многоголосый
• №3: Русский (АС3, 2 ch, 192 Кбит/с) Авторский одноголосый [Андрей Гаврилов]
• №4: Английский (АС3, 6 ch, 384 Кбит/с)
Отдельно:
• №5: Русский (АС3, 2 ch, 192 Кбит/с) Авторский одноголосый [Андрей Дольский]
• №6: Русский (АС3, 6 ch, 384 Кбит/с) Авторский одноголосый [Юрий Живов]
• №7: Русский (АС3, 2 ch, 192 Кбит/с) Авторский одноголосый [Александр Кашкин (Первомайский)]

Субтитры: Русские, английские

Рип с исходника без черных полос. Наполнение кадра больше по вертикали

-------------------------------------------------------------------
x264 [info]: frame I:944 Avg QP:15.80 size: 79746
x264 [info]: frame P:29241 Avg QP:18.56 size: 27298
x264 [info]: frame B:124260 Avg QP:19.73 size: 7866
-------------------------------------------------------------------

Полное имя : The.Sixth.Sense.1999.x264.BDRip.(AVC).0ptimus.mkv
Формат : Matroska
Версия формата : Version 2
Размер файла : 2,73 Гбайт
Продолжительность : 1 ч. 47 м.
Общий поток : 3641 Кбит/сек
Название фильма : Шестое чувство | The Sixth Sense [1999] -= BDRip (AVC) by 0ptimus =-
Дата кодирования : UTC 2014-05-10 05:56:40
Программа кодирования : mkvmerge v6.6.0 ('The Edge Of The In Between') built on Dec 1 2013 17:55:00
Библиотека кодирования : libebml v1.3.0 + libmatroska v1.4.1

Видео
Идентификатор : 1
Формат : AVC
Формат/Информация : Advanced Video Codec
Профиль формата : High@L4.1
Параметр CABAC формата : Да
Параметр ReFrames формата : 9 кадров
Идентификатор кодека : V_MPEG4/ISO/AVC
Продолжительность : 1 ч. 47 м.
Битрейт : 2299 Кбит/сек
Ширина : 1024 пикселя
Высота : 576 пикселей
Соотношение сторон : 16:9
Режим частоты кадров : Постоянный
Частота кадров : 23,976 кадра/сек
Цветовое пространство : YUV
Субдискретизация насыщенности : 4:2:0
Битовая глубина : 8 бит
Тип развёртки : Прогрессивная
Бит/(Пиксели*Кадры) : 0.163
Размер потока : 1,67 Гбайт (61%)
Заголовок : Rip by 0ptimus
Библиотека кодирования : x264 core 133 r2334 a3ac64b
Настройки программы : cabac=1 / ref=9 / deblock=1:-3:-3 / analyse=0x3:0x113 / me=umh / subme=11 / psy=1 / psy_rd=1.00:0.20 / mixed_ref=1 / me_range=48 / chroma_me=1 / trellis=2 / 8x8dct=1 / cqm=0 / deadzone=21,11 / fast_pskip=0 / chroma_qp_offset=-3 / threads=4 / lookahead_threads=1 / sliced_threads=0 / nr=0 / decimate=0 / interlaced=0 / bluray_compat=0 / constrained_intra=0 / bframes=12 / b_pyramid=2 / b_adapt=2 / b_bias=0 / direct=3 / weightb=1 / open_gop=0 / weightp=2 / keyint=240 / keyint_min=23 / scenecut=40 / intra_refresh=0 / rc_lookahead=40 / rc=2pass / mbtree=0 / bitrate=2299 / ratetol=1.0 / qcomp=0.60 / qpmin=0 / qpmax=69 / qpstep=4 / cplxblur=20.0 / qblur=0.5 / vbv_maxrate=50000 / vbv_bufsize=50000 / nal_hrd=none / ip_ratio=1.40 / pb_ratio=1.30 / aq=1:1.00
Язык : English
Default : Да
Forced : Да

Аудио #1
Идентификатор : 2
Формат : AC-3
Формат/Информация : Audio Coding 3
Расширение режима : CM (complete main)
Параметр Endianness формата : Big
Идентификатор кодека : A_AC3
Продолжительность : 1 ч. 47 м.
Вид битрейта : Постоянный
Битрейт : 384 Кбит/сек
Каналы : 6 каналов
Расположение каналов : Front: L C R, Side: L R, LFE
Частота : 48,0 КГц
Битовая глубина : 16 бит
Метод сжатия : С потерями
Размер потока : 295 Мбайт (11%)
Заголовок : Дублированный AC3 5.1 @ 384 kbps
Язык : Russian
Default : Да
Forced : Да

Аудио #2
Идентификатор : 3
Формат : AC-3
Формат/Информация : Audio Coding 3
Расширение режима : CM (complete main)
Параметр Endianness формата : Big
Идентификатор кодека : A_AC3
Продолжительность : 1 ч. 47 м.
Вид битрейта : Постоянный
Битрейт : 384 Кбит/сек
Каналы : 6 каналов
Расположение каналов : Front: L C R, Side: L R, LFE
Частота : 48,0 КГц
Битовая глубина : 16 бит
Метод сжатия : С потерями
Размер потока : 295 Мбайт (11%)
Заголовок : Многоголосый закадровый AC3 5.1 @ 384 kbps
Язык : Russian
Default : Нет
Forced : Нет

Аудио #3
Идентификатор : 4
Формат : AC-3
Формат/Информация : Audio Coding 3
Расширение режима : CM (complete main)
Параметр Endianness формата : Big
Идентификатор кодека : A_AC3
Продолжительность : 1 ч. 47 м.
Вид битрейта : Постоянный
Битрейт : 192 Кбит/сек
Каналы : 2 канала
Расположение каналов : Front: L R
Частота : 48,0 КГц
Битовая глубина : 16 бит
Метод сжатия : С потерями
Размер потока : 148 Мбайт (5%)
Заголовок : Авторский [Андрей Гаврилов] AC3 2.0 @ 192 kbps
Язык : Russian
Default : Нет
Forced : Нет

Аудио #4
Идентификатор : 5
Формат : AC-3
Формат/Информация : Audio Coding 3
Расширение режима : CM (complete main)
Параметр Endianness формата : Big
Идентификатор кодека : A_AC3
Продолжительность : 1 ч. 47 м.
Вид битрейта : Постоянный
Битрейт : 384 Кбит/сек
Каналы : 6 каналов
Расположение каналов : Front: L C R, Side: L R, LFE
Частота : 48,0 КГц
Битовая глубина : 16 бит
Метод сжатия : С потерями
Размер потока : 295 Мбайт (11%)
Заголовок : AC3 5.1 @ 384 kbps
Язык : English
Default : Нет
Forced : Нет

Текст #1
Идентификатор : 6
Формат : UTF-8
Идентификатор кодека : S_TEXT/UTF8
Идентификатор кодека/Информация : UTF-8 Plain Text
Язык : Russian
Default : Нет
Forced : Нет

Текст #2
Идентификатор : 7
Формат : UTF-8
Идентификатор кодека : S_TEXT/UTF8
Идентификатор кодека/Информация : UTF-8 Plain Text
Язык : English
Default : Нет
Forced : Нет

Меню
00:00:00.000 : en:Opening Credits
00:06:49.158 : en:Uninvited Guest
00:10:34.342 : en:Sanctuary
00:15:08.198 : en:Strange Happenings
00:20:17.424 : en:Mind Reading Games
00:26:14.531 : en:Anniversary Dinner
00:34:27.815 : en:Setting Goals
00:41:26.901 : en:Freak!
00:48:16.893 : en:Locked in the Dungeon
01:06:19.934 : en:Bedtime Stories and Secrets
01:09:23.325 : en:Someone's In the Kitchen
01:14:52.946 : en:Trouble in the Family
01:20:49.928 : en:The Only One Who Can Help
01:27:07.472 : en:Replay
01:29:17.560 : en:Kyra
01:36:14.935 : en:The School Play
01:42:15.379 : en:Communication
01:47:20.642 : en:Letting Go
Релиз от:



Скачать Шестое.чувство.The.Sixth.Sense.(М.Найт.Шьямалан).[1999.мистический.триллер.драма.детектив.BDRip-AVC].[Dub]+[MVO]+[AVO]x4+[Sub]x2.torrent без регистрации
Золото ЗОЛОТАЯ РАЗДАЧА! СКАЧАННОЕ НЕ ЗАСЧИТЫВАЕТСЯ! Золото
Дата: Зарегистрирован   [ Тип: внутренний ] Как тут cкачать?
MAGNET ссылка
MAGNET ссылка


Скачать .torrent

34 KB

Статус: проверено DHT
Скачан: торрент - 175 раз, раздача полностью - 146 раз
Размер: 3,31 GB
Оценка:  - (Голосов: 0)
Поблагодарили: 3
Поделиться ссылкой на эту раздачу с друзьями:
В контактеFacebookОдноклассникиTwitterLivejournalМой МирLiveinternet
 

 
Показать сообщения:    


Вы не можете начинать темы
Вы не можете отвечать на сообщения
Вы не можете редактировать свои сообщения
Вы не можете удалять свои сообщения
Вы не можете голосовать в опросах
Вы не можете прикреплять файлы к сообщениям
Вы можете скачивать файлы