Loading...
Error

Скачать Водолей / Deliria (Микеле Соави) [1987, ужасы, HDRip] [AVO (А. Гаврилов)] торрент без регистрации

 
Статистика раздачи
Размер:  1,45 GB   |    Скачан:  121 раз

Полного источника не было: 25 минут

 
Автор Сообщение

Marsianka

[] 

Водолей / Deliria (1987) HDRip

Информация о фильме
Название: Водолей
Оригинальное название: Deliria
Год выхода: 1987
Жанр: ужасы
Режиссер: Микеле Соави

В ролях: Дэвид Брэндон, Барбара Куписти, Доменико Фиоре, Роберт Глигоров, Микки Нокс, Джованни Ломбардо Радице, Клейн Паркер, Лоредана Паррелла, Мартин Филипс, Джеймс Сэмпсон

О фильме: В небольшом театре идут репетиции мюзикла, главным героем которого должен стать кровавый маньяк-убийца Ирвинг Уоллес.

По дьявольской иронии судьбы, сам прототип, только что сбежавший из закрытой психиатрической лечебницы, оказывается среди зрителей на генеральной репетиции. И начинается кровавая баня — ведь к концу спектакля все актеры могут превратиться в куски окровавленного мяса…



Страна: Италия
Продолжительность: 01:30:16
Перевод: Авторский одноголосый (А. Гаврилов)

Файл
Кодек: XviD
Качество: HDRip
Видео: 720x384 (1,85:1), 23.976 fps, 1906 kbps, 0.288 bit/pixel
Звук: 48 kHz, AC3 Dolby Digital, 6 ch, ~384.00 kbps

Общее
Полное имя : D:Deliria.1987.HDRip.avi
Формат : AVI
Формат/Информация : Audio Video Interleave
Размер файла : 1,45 Гбайт
Продолжительность : 1 ч. 30 м.
Общий поток : 2300 Кбит/сек
Название фильма : Deliria.1987.HDRip
Программа кодирования : VirtualDubModRus 1.5.10.2 (build 2542/release)
Правообладатель : rip by Rulya74

Видео
Идентификатор : 0
Формат : MPEG-4 Visual
Профиль формата : Advanced Simple@L5
Параметр BVOP формата : 1
Параметр QPel формата : Нет
Параметр GMC формата : Без точки перехода
Параметр матрицы формата : Выборочная
Идентификатор кодека : XVID
Идентификатор кодека/Подсказка : XviD
Продолжительность : 1 ч. 30 м.
Битрейт : 1906 Кбит/сек
Ширина : 720 пикселей
Высота : 384 пикселя
Соотношение сторон : 1,85:1
Частота кадров : 23,976 кадра/сек
Цветовое пространство : YUV
Субдискретизация насыщенности : 4:2:0
Битовая глубина : 8 бит
Тип развёртки : Прогрессивная
Метод сжатия : С потерями
Бит/(Пиксели*Кадры) : 0.288
Размер потока : 1,20 Гбайт (83%)
Библиотека кодирования : XviD 66

Аудио
Идентификатор : 1
Формат : AC-3
Формат/Информация : Audio Coding 3
Расширение режима : CM (complete main)
Параметр Endianness формата : Big
Идентификатор кодека : 2000
Продолжительность : 1 ч. 30 м.
Вид битрейта : Постоянный
Битрейт : 384 Кбит/сек
Каналы : 6 каналов
Расположение каналов : Front: L C R, Side: L R, LFE
Частота : 48,0 КГц
Битовая глубина : 16 бит
Метод сжатия : С потерями
Размер потока : 248 Мбайт (17%)
Выравнивание : Разделение по промежуткам
Продолжительность промежутка : 42 мс. (1,00 видеокадр)
Время предзагрузки промежутка : 500 мс.
Заголовок : Одноголосый закадровый (А. Гаврилов)



Скачать Водолей.Deliria.(Микеле.Соави).[1987.ужасы.HDRip].[AVO.(А.Гаврилов)].torrent без регистрации
Золото ЗОЛОТАЯ РАЗДАЧА! СКАЧАННОЕ НЕ ЗАСЧИТЫВАЕТСЯ! Золото
Дата: Зарегистрирован   [ Тип: внутренний ] Как тут cкачать?
MAGNET ссылка
MAGNET ссылка


Скачать .torrent

15 KB

Статус: проверено DHT
Скачан: торрент - 121 раз, раздача полностью - 1 раз
Размер: 1,45 GB
Оценка:  - (Голосов: 0)
Поблагодарили: 1
Поделиться ссылкой на эту раздачу с друзьями:
В контактеFacebookОдноклассникиTwitterLivejournalМой МирLiveinternet
 

 
Показать сообщения:    


Вы не можете начинать темы
Вы не можете отвечать на сообщения
Вы не можете редактировать свои сообщения
Вы не можете удалять свои сообщения
Вы не можете голосовать в опросах
Вы не можете прикреплять файлы к сообщениям
Вы можете скачивать файлы