Loading...
Error

Скачать Опасный Бангкок / Bangkok Dangerous (Оксид Пэнг Чун, Дэнни Пэнг) [2008, боевик, триллер, драма, криминал, HDRip] [DUB] торрент без регистрации

 
Статистика раздачи
Размер:  1,46 GB   |    Скачан:  594 раза

Полного источника не было: 19 минут

 
Автор Сообщение

leon030982

[] 

Опасный Бангкок / Bangkok Dangerous


Год выпуска: 2008
Страна: США
Жанр: боевик, триллер, драма, криминал
Продолжительность: 01:39:12
Перевод: Профессиональный (дублированный)
Cубтитры: нет
Оригинальная аудиодорожка: нет

Режиссер: Оксид Пэнг Чун / Oxide Pang Chun, Дэнни Пэнг / Danny Pang

В ролях: Николас Кейдж, Шакрит Ямнарм, Чарли Енг, Пэнворд Хаммани, Дом Хетракул, Джеймс Уит...

Описание: Четыре главных правила наемного убийцы: 1) не задавать вопросов; 2) нет правых и виноватых; 3) не интересоваться людьми, не имеющих отношения к работе; 4) знать, когда уйти, и уйти богатым. В этом городе вы можете купить всё, но вы не можете купить всех. И тогда для вас нет страшнее человека, чем наемный убийца, который отвечает на удар. Профессиональный наемный убийца приезжает в Бангкок для проведения серии сложных операций. Он понимает, что не сможет справиться с заданием один, поэтому нанимает себе в помощники местного ловкого парня, который четко выполняет все его поручения. Но со временем отношения шефа-киллера и тайского юноши меняются, в холодном сердце бывалого убийцы зарождается чувство...



Качество: HDRip
Формат: AVI
Видео: MPEG-4 Visual at 1653 Кбит/сек; 704 x 400 (1.760) at 23.976 fps
Аудио: AC-3 at 448 Кбит/сек; 6 каналов, 48,0 КГц
Релиз от -
Общее
Полное имя : D:\Фильмы\Боевики\Опасный Бангкок\Bangkok Dangerous.2008.HDRip.XviD.AC3. rip by [Assassin's Creed].avi
Формат : AVI
Формат/Информация : Audio Video Interleave
Размер файла : 1,46 Гбайт
Продолжительность : 1 ч. 39 м.
Общий поток : 2111 Кбит/сек
Программа кодирования : VirtualDubMod 1.5.10.3 | www.virtualdub-fr.org || (build 2550/release)
Библиотека кодирования : VirtualDubMod build 2550/release
Видео
Идентификатор : 0
Формат : MPEG-4 Visual
Профиль формата : Advanced Simple@L5
Параметр BVOP формата : 1
Параметр QPel формата : Нет
Параметр GMC формата : Без точки перехода
Параметр матрицы формата : Default (MPEG)
Идентификатор кодека : DX50
Идентификатор кодека/Подсказка : DivX 5
Продолжительность : 1 ч. 39 м.
Битрейт : 1653 Кбит/сек
Ширина : 704 пикселя
Высота : 400 пикселей
Соотношение сторон : 16:9
Частота кадров : 23,976 кадра/сек
Цветовое пространство : YUV
Субдискретизация насыщенности : 4:2:0
Битовая глубина : 8 бит
Тип развёртки : Прогрессивная
Метод сжатия : С потерями
Бит/(Пиксели*Кадры) : 0.245
Размер потока : 1,15 Гбайт (78%)
Библиотека кодирования : XviD 1.2.1 (UTC 2008-12-04)
Аудио
Идентификатор : 1
Формат : AC-3
Формат/Информация : Audio Coding 3
Расширение режима : CM (complete main)
Параметр Endianness формата : Big
Идентификатор кодека : 2000
Продолжительность : 1 ч. 39 м.
Вид битрейта : Постоянный
Битрейт : 448 Кбит/сек
Каналы : 6 каналов
Расположение каналов : Front: L C R, Side: L R, LFE
Частота : 48,0 КГц
Битовая глубина : 16 бит
Метод сжатия : С потерями
Размер потока : 318 Мбайт (21%)
Выравнивание : Разделение по промежуткам
Продолжительность промежутка : 42 мс. (1,00 видеокадр)
Время предзагрузки промежутка : 500 мс.



Скачать Опасный.Бангкок.Bangkok.Dangerous.(Оксид.Пэнг.Чун.Дэнни.Пэнг).[2008.боевик.триллер.драма.криминал.HDRip].[DUB].torrent без регистрации
Золото ЗОЛОТАЯ РАЗДАЧА! СКАЧАННОЕ НЕ ЗАСЧИТЫВАЕТСЯ! Золото
Дата: Зарегистрирован   [ Тип: внутренний ] Как тут cкачать?
MAGNET ссылка
MAGNET ссылка


Скачать .torrent

15 KB

Статус: проверено DHT
Скачан: торрент - 594 раз, раздача полностью - 75 раз
Размер: 1,46 GB
Оценка:  - (Голосов: 0)
Поблагодарили: 2
Поделиться ссылкой на эту раздачу с друзьями:
В контактеFacebookОдноклассникиTwitterLivejournalМой МирLiveinternet
 

 
Показать сообщения:    


Вы не можете начинать темы
Вы не можете отвечать на сообщения
Вы не можете редактировать свои сообщения
Вы не можете удалять свои сообщения
Вы не можете голосовать в опросах
Вы не можете прикреплять файлы к сообщениям
Вы можете скачивать файлы