Loading...
Error

Скачать Мафиозо / Mafioso (Альберто Латтуада) [1962, криминальная комедия, DVDRip-AVC] [MVO]+[Sub] торрент без регистрации

 
Статистика раздачи
Размер:  1,47 GB   |    Скачан:  115 раз
Сидов:  1  [  0 KB/s  ]  
 
Автор Сообщение

Marsianka

[] 

Информация о фильме
Название: Мафиозо
Оригинальное название: Mafioso
Год выхода: 1962
Жанр: криминальная комедия
Режиссер: Альберто Латтуада / Alberto Lattuada
В ролях: Альберто Сорди (Alberto Sordi), Норма Бенгелл (Norma Bengell), Габриэла Конти (Gabriella Conti), Уго Аттанасио (Ugo Attanasio),Синция Бруно(Cinzia Bruno), Армандо Тине (Armando Tine)

О фильме:
Рабочий автомобильного завода вместе со своей женой и двумя дочерьми отправляется в отпуск. Главная цель поездки – не отдохнуть, а убедить свою семью в том, что его родная Сицилия прекрасная страна. Однако на месте выясняется, что некоторые особенности сицилийской мафии он успел позабыть...


Страна: Италия
Студия: Compagnia Cinematografica Antonio Cervi, Dino de Laurentiis Cinematografica
Продолжительность: 01:43:21.154
Перевод: Профессиональный (многоголосый, закадровый) Петербург 5 канал

Файл
Кодек: h.264
Качество: DVDRip-AVC
Видео: 720x464 (1.85:1) @ 854x464 (анаморф), 23.976 fps, AVC, ~1746 Kbps, 0.218 bits/pixel
Звук:
Русский, 48.0 KHz, AC3, 1 ch, 96.0 Kbps
Итальянский, 48.0 KHz, AC3, 1 ch, 192 Kbps
Субтитры: Английские, VobSub
Общее
Уникальный идентификатор : 236101928220167840433705629665956771000 (0xB19F93CD1F7D67C79195FFC75278B4B8)
Полное имя : H:FilmsMafiozo.1962.DVDRip-AVC.mkv
Формат : Matroska
Версия формата : Version 4 / Version 2
Размер файла : 1,47 Гбайт
Продолжительность : 1 ч. 43 м.
Общий поток : 2037 Кбит/сек
Дата кодирования : UTC 2014-11-09 15:43:50
Программа кодирования : mkvmerge v7.3.0 ('Nouages') 64bit built on Oct 22 2014 18:53:34
Библиотека кодирования : libebml v1.3.0 + libmatroska v1.4.1
DURATION : 01:37:31.909000000
NUMBER_OF_FRAMES : 1051
NUMBER_OF_BYTES : 1152123
_STATISTICS_WRITING_APP : mkvmerge v7.3.0 ('Nouages') 64bit built on Oct 22 2014 18:53:34
_STATISTICS_WRITING_DATE_UTC : 2014-11-09 15:43:50
_STATISTICS_TAGS : BPS DURATION NUMBER_OF_FRAMES NUMBER_OF_BYTES

Видео
Идентификатор : 1
Формат : AVC
Формат/Информация : Advanced Video Codec
Профиль формата : High@L4.1
Параметр CABAC формата : Да
Параметр ReFrames формата : 16 кадров
Идентификатор кодека : V_MPEG4/ISO/AVC
Продолжительность : 1 ч. 43 м.
Битрейт : 1746 Кбит/сек
Ширина : 720 пикселей
Высота : 464 пикселя
Соотношение сторон : 1,85:1
Соотношение сторон в оригинале : 1,85:1
Режим частоты кадров : Постоянный
Частота кадров : 23,976 кадра/сек
Цветовое пространство : YUV
Субдискретизация насыщенности : 4:2:0
Битовая глубина : 8 бит
Тип развёртки : Прогрессивная
Бит/(Пиксели*Кадры) : 0.218
Размер потока : 1,23 Гбайт (84%)
Библиотека кодирования : x264 core 142 r2431 ac76440
Настройки программы : cabac=1 / ref=16 / deblock=1:0:0 / analyse=0x3:0x133 / me=umh / subme=10 / psy=1 / psy_rd=1.10:0.10 / mixed_ref=1 / me_range=32 / chroma_me=1 / trellis=2 / 8x8dct=1 / cqm=0 / deadzone=21,11 / fast_pskip=0 / chroma_qp_offset=-3 / threads=8 / lookahead_threads=2 / sliced_threads=0 / nr=0 / decimate=0 / interlaced=0 / bluray_compat=0 / constrained_intra=0 / bframes=10 / b_pyramid=2 / b_adapt=2 / b_bias=0 / direct=3 / weightb=1 / open_gop=0 / weightp=2 / keyint=240 / keyint_min=23 / scenecut=60 / intra_refresh=0 / rc_lookahead=60 / rc=2pass / mbtree=0 / bitrate=1746 / ratetol=1.0 / qcomp=0.60 / qpmin=0 / qpmax=69 / qpstep=4 / cplxblur=20.0 / qblur=0.5 / vbv_maxrate=50000 / vbv_bufsize=62500 / nal_hrd=none / filler=0 / ip_ratio=1.40 / pb_ratio=1.30 / aq=1:1.00
Default : Нет
Forced : Нет
Коэффициенты матрицы : BT.601
DURATION : 01:43:21.154000000
NUMBER_OF_FRAMES : 148679
NUMBER_OF_BYTES : 1353404333
_STATISTICS_WRITING_APP : mkvmerge v7.3.0 ('Nouages') 64bit built on Oct 22 2014 18:53:34
_STATISTICS_WRITING_DATE_UTC : 2014-11-09 15:43:50
_STATISTICS_TAGS : BPS DURATION NUMBER_OF_FRAMES NUMBER_OF_BYTES

Аудио #1
Идентификатор : 2
Формат : AC-3
Формат/Информация : Audio Coding 3
Расширение режима : CM (complete main)
Параметр Endianness формата : Big
Идентификатор кодека : A_AC3
Продолжительность : 1 ч. 43 м.
Вид битрейта : Постоянный
Битрейт : 96,0 Кбит/сек
Каналы : 1 канал
Расположение каналов : Front: C
Частота : 48,0 КГц
Битовая глубина : 16 бит
Метод сжатия : С потерями
Размер потока : 71,0 Мбайт (5%)
Язык : Russian
Default : Да
Forced : Нет

Аудио #2
Идентификатор : 3
Формат : AC-3
Формат/Информация : Audio Coding 3
Расширение режима : CM (complete main)
Параметр Endianness формата : Big
Идентификатор кодека : A_AC3
Продолжительность : 1 ч. 43 м.
Вид битрейта : Постоянный
Битрейт : 192 Кбит/сек
Каналы : 1 канал
Расположение каналов : Front: C
Частота : 48,0 КГц
Битовая глубина : 16 бит
Метод сжатия : С потерями
Размер потока : 142 Мбайт (9%)
Язык : Italian
Default : Нет
Forced : Нет

Текст
Идентификатор : 4
Формат : VobSub
Режим смешивания : zlib
Идентификатор кодека : S_VOBSUB
Идентификатор кодека/Информация : The same subtitle format used on DVDs
Язык : English
Default : Нет
Forced : Нет

Меню
00:00:00.000 : en:Chapter 01
00:06:48.200 : en:Chapter 02
00:09:57.700 : en:Chapter 03
00:14:49.700 : en:Chapter 04
00:18:46.134 : en:Chapter 05
00:28:36.134 : en:Chapter 06
00:33:39.301 : en:Chapter 07
00:40:40.301 : en:Chapter 08
00:45:21.801 : en:Chapter 09
00:50:21.301 : en:Chapter 10
00:54:42.801 : en:Chapter 11
01:01:23.769 : en:Chapter 12
01:03:20.004 : en:Chapter 13
01:09:06.004 : en:Chapter 14
01:10:57.004 : en:Chapter 15
01:20:33.838 : en:Chapter 16
01:24:31.338 : en:Chapter 17
01:27:00.338 : en:Chapter 18
01:31:48.505 : en:Chapter 19
01:39:13.839 : en:Chapter 20
01:43:14.540 : en:Chapter 21
Исходник R1 Criterion Collection Релиз от: Temperest



Скачать Мафиозо.Mafioso.(Альберто.Латтуада).[1962.криминальная.комедия.DVDRip-AVC].[MVO]+[Sub].torrent без регистрации
Золото ЗОЛОТАЯ РАЗДАЧА! СКАЧАННОЕ НЕ ЗАСЧИТЫВАЕТСЯ! Золото
Дата: Зарегистрирован   [ Тип: внутренний ] Как тут cкачать?
MAGNET ссылка
MAGNET ссылка


Скачать .torrent

15 KB

Статус: проверено DHT
Скачан: торрент - 115 раз, раздача полностью - 5 раз
Размер: 1,47 GB
Оценка:  - (Голосов: 0)
Поблагодарили: 1
Поделиться ссылкой на эту раздачу с друзьями:
В контактеFacebookОдноклассникиTwitterLivejournalМой МирLiveinternet
 

 
Показать сообщения:    


Вы не можете начинать темы
Вы не можете отвечать на сообщения
Вы не можете редактировать свои сообщения
Вы не можете удалять свои сообщения
Вы не можете голосовать в опросах
Вы не можете прикреплять файлы к сообщениям
Вы можете скачивать файлы