Loading...
Error

Скачать Доктор Адамс / Целитель Адамс / Patch Adams (Том Шэдьяк / Tom Shadyac) [1998, драма, комедия, биография, HDRip] [AVO] (Ю.Живов) + [Orig] (Eng) торрент без регистрации

 
Статистика раздачи
Размер:  2,16 GB   |    Скачан:  123 раза
Сидов:  1  [  0 KB/s  ]  
 
Автор Сообщение

leon030982

[] 

Доктор Адамс / Целитель Адамс / Patch Adams



Год выпуска: 1998
Страна: США
Жанр: драма, комедия, биография
Продолжительность: 01:55:23
Перевод: Авторский (одноголосый, закадровый) - [Юрий Живов]
Cубтитры: нет
Оригинальная аудиодорожка: английский
Режиссер: Том Шэдьяк
В ролях: Робин Уильямс, Дэниэл Лондон, Моника Поттер, Филип Сеймур Хоффман, Боб Гантон, Йозеф Зоммер, Ирма П. Холл, Фрэнсис Ли МакКейн, Харви Преснелл, Даниэлла Кун и др.
В состоянии глубокой депрессии Хантер «Патч» Адамс попадает в психиатрическую клинику. Но врачи не могут ему помочь, его спасают пациенты. Они заставляют его посмотреть на свою жизнь со стороны, взглянуть на неё со смехом. На собственном примере Адамс убеждается в том, что смех может творить чудеса и исцелять. Смех — лучшее лекарство, и в нескольких случаях ноу-хау Патча действительно спасает людей.

Качество видео: HDRip
Формат видео: AVI
Видео: XviD 2039 Kbps 720 x 304 23,976 fps
Аудио rus: AC3 192 Kbps 2 channels 48.0 KHz
Аудио eng: AC3 448 Kbps 6 channels 48.0 KHz

Цитата:

Перевод Живова оцифрован с VHS Fikaloid. Видео из раздачи ZobaNupa. Работа со звуком - ale_x2008. Всем большое спасибо!
Общее
Полное имя : C:\!!!!\Раздачи\Доктор Адамс (1998).avi
Формат : AVI
Формат/Информация : Audio Video Interleave
Профиль формата : OpenDML
Настройки формата : rec
Размер файла : 2,16 Гбайт
Продолжительность : 1 ч. 55 м.
Общий поток : 2680 Кбит/сек
Название фильма : Celitel'.Adams.1998.HDRip.
Программа кодирования : AVI-Mux GUI 1.17.8.3, Feb 16 201019:42:50
Видео
Идентификатор : 0
Формат : MPEG-4 Visual
Профиль формата : Advanced Simple@L5
Параметр BVOP формата : 2
Параметр QPel формата : Нет
Параметр GMC формата : Без точки перехода
Параметр матрицы формата : Выборочная
Идентификатор кодека : XVID
Идентификатор кодека/Подсказка : XviD
Продолжительность : 1 ч. 55 м.
Битрейт : 2028 Кбит/сек
Ширина : 720 пикселей
Высота : 304 пикселя
Соотношение сторон : 2,35:1
Частота кадров : 23,976 кадра/сек
Цветовое пространство : YUV
Субдискретизация насыщенности : 4:2:0
Битовая глубина : 8 бит
Тип развёртки : Прогрессивная
Метод сжатия : С потерями
Бит/(Пиксели*Кадры) : 0.386
Размер потока : 1,63 Гбайт (76%)
Библиотека кодирования : XviD 64
Аудио #1
Идентификатор : 1
Формат : AC-3
Формат/Информация : Audio Coding 3
Расширение режима : CM (complete main)
Параметр Endianness формата : Big
Идентификатор кодека : 2000
Продолжительность : 1 ч. 55 м.
Вид битрейта : Постоянный
Битрейт : 192 Кбит/сек
Каналы : 2 канала
Расположение каналов : Front: L R
Частота : 48,0 КГц
Битовая глубина : 16 бит
Метод сжатия : С потерями
Размер потока : 158 Мбайт (7%)
Выравнивание : Соединение по промежуткам
Продолжительность промежутка : 32 мс. (0,77 видеокадр)
Время предзагрузки промежутка : 224 мс.
Аудио #2
Идентификатор : 2
Формат : AC-3
Формат/Информация : Audio Coding 3
Расширение режима : CM (complete main)
Параметр Endianness формата : Big
Идентификатор кодека : 2000
Продолжительность : 1 ч. 55 м.
Вид битрейта : Постоянный
Битрейт : 448 Кбит/сек
Каналы : 6 каналов
Расположение каналов : Front: L C R, Side: L R, LFE
Частота : 48,0 КГц
Битовая глубина : 16 бит
Метод сжатия : С потерями
Размер потока : 370 Мбайт (17%)
Выравнивание : Соединение по промежуткам
Продолжительность промежутка : 32 мс. (0,77 видеокадр)
Время предзагрузки промежутка : 192 мс.



Скачать Доктор.Адамс.Целитель.Адамс.Patch.Adams.(Том.Шэдьяк.Tom.Shadyac).[1998.драма.комедия.биография.HDRip].[AVO].(Ю.Живов).+.[Orig].(Eng).torrent без регистрации
Золото ЗОЛОТАЯ РАЗДАЧА! СКАЧАННОЕ НЕ ЗАСЧИТЫВАЕТСЯ! Золото
Дата: Зарегистрирован   [ Тип: внутренний ] Как тут cкачать?
MAGNET ссылка
MAGNET ссылка


Скачать .torrent

11 KB

Статус: проверено DHT
Скачан: торрент - 123 раз, раздача полностью - 8 раз
Размер: 2,16 GB
Оценка:  5 (Голосов: 1)
Поблагодарили: 0
Поделиться ссылкой на эту раздачу с друзьями:
В контактеFacebookОдноклассникиTwitterLivejournalМой МирLiveinternet
 

 
Показать сообщения:    


Вы не можете начинать темы
Вы не можете отвечать на сообщения
Вы не можете редактировать свои сообщения
Вы не можете удалять свои сообщения
Вы не можете голосовать в опросах
Вы не можете прикреплять файлы к сообщениям
Вы можете скачивать файлы