Loading...
Error

Скачать История чужой любви / Kærlighed på film / Just another love story (Оле Борнедаль) [2007, триллер, драма, криминал, BDRip-AVC] [DVO]+[Оригинал]+[Sub]x2 торрент без регистрации

 
Статистика раздачи
Размер:  2,32 GB   |    Скачан:  117 раз
Сидов:  1  [  0 KB/s  ]  
 
Автор Сообщение

Marsianka

[] 

Информация о фильме
Название: История чужой любви
Оригинальное название: Kærlighed på film / Just another love story
Год выхода: 2007
Жанр: триллер, драма, криминал
Режиссер: Оле Борнедаль
В ролях: Андерс В. Бертельсен, Николай Ли Каас, Шарлотта Фич, Деян Чукич, Флемминг Эневольд, Бент Мейдинг, Ева Фрёлинг

О фильме: Йонас, примерный семьянин, работает фотографом-криминалистом. Он страдает от типично городской хандры, пока не попадает в дорожно-транспортное происшествие. Жертву ДТП, Юлию, без сознания доставляют в больницу. Любопытство подталкивает Йонаса к тому, чтобы навестить Юлию, причём её семья принимает его за бойфренда девушки — Себастьяна, которого они прежде никогда не встречали. Йонас с готовностью примеряет на себя эту роль. Когда Юлия приходит в сознание, выясняется, что у неё амнезия. Вдохновлённый тем, что его обман не раскрыли, Йонас продолжает жить чужой жизнью. Но воспоминания имеют свойство возвращаться. Впрочем, бойфренды тоже....



Страна: Дания
Студия: Thura Film
Продолжительность: 01:40:12
Перевод: Профессиональный двухголосый

Файл
Кодек: MPEG-4 AVC
Качество: BDRip-AVC
Видео: 2680 Кбит/с, 1024x428, 25.000 кадр/с
Аудио #1: Русский (AC3, 2 ch, 192 Кбит/с) / Профессиональный двухголосый (НТВ+)
Аудио #2: Датский (AC3, 6 ch, 448 Кбит/с)
Субтитры: Русские, английские
Семпл
Общее
Уникальный идентификатор : 213825427446455510736425028242296148117 (0xA0DD4784132C0BAA879BAB5A12D21095)
Полное имя : D:Мои РипыIstorija.Chuzhoj.Ljubvi.2007.BDRip.AVC.MediaClub.mkv
Формат : Matroska
Версия формата : Version 4 / Version 2
Размер файла : 2,32 Гбайт
Продолжительность : 1 ч. 40 м.
Общий поток : 3320 Кбит/сек
Название фильма : = MediaClub = rip by krakatuq
Дата кодирования : UTC 2014-11-12 11:37:58
Программа кодирования : mkvmerge v6.6.0 ('The Edge Of The In Between') built on Dec 1 2013 17:55:00
Библиотека кодирования : libebml v1.3.0 + libmatroska v1.4.1

Видео
Идентификатор : 1
Формат : AVC
Формат/Информация : Advanced Video Codec
Профиль формата : High@L4.1
Параметр CABAC формата : Да
Параметр ReFrames формата : 9 кадров
Идентификатор кодека : V_MPEG4/ISO/AVC
Продолжительность : 1 ч. 40 м.
Битрейт : 2680 Кбит/сек
Ширина : 1024 пикселя
Высота : 428 пикселей
Соотношение сторон : 2,40:1
Режим частоты кадров : Постоянный
Частота кадров : 25,000 кадров/сек
Цветовое пространство : YUV
Субдискретизация насыщенности : 4:2:0
Битовая глубина : 8 бит
Тип развёртки : Прогрессивная
Бит/(Пиксели*Кадры) : 0.245
Размер потока : 1,83 Гбайт (79%)
Заголовок : Istorija.Chuzhoj.Ljubvi.2007.BDRip.AVC.MediaClub
Библиотека кодирования : x264 core 142 r2409+42 04be48a tMod [8-bit@4:2:0 X86]
Настройки программы : cabac=1 / ref=9 / deblock=1:-2:-2 / analyse=0x3:0x133 / me=umh / subme=11 / psy=1 / fade_compensate=0.00 / psy_rd=1.00:0.15 / mixed_ref=1 / me_range=32 / chroma_me=1 / trellis=2 / 8x8dct=1 / cqm=0 / deadzone=21,11 / fast_pskip=0 / chroma_qp_offset=-3 / threads=3 / lookahead_threads=1 / sliced_threads=0 / nr=0 / decimate=0 / interlaced=0 / bluray_compat=0 / constrained_intra=0 / fgo=0 / bframes=8 / b_pyramid=2 / b_adapt=2 / b_bias=0 / direct=3 / weightb=1 / open_gop=0 / weightp=2 / keyint=250 / keyint_min=25 / scenecut=40 / intra_refresh=0 / rc=2pass / mbtree=0 / bitrate=2680 / ratetol=1.0 / qcomp=0.60 / qpmin=0:0:0 / qpmax=69:69:69 / qpstep=4 / cplxblur=20.0 / qblur=0.5 / ip_ratio=1.40 / pb_ratio=1.30 / aq=1:1.00 / aq-sensitivity=10.00 / aq-factor=1.00:1.00:1.00 / aq2=0 / aq3=0
Язык : English
Default : Да
Forced : Нет

Аудио #1
Идентификатор : 2
Формат : AC-3
Формат/Информация : Audio Coding 3
Расширение режима : CM (complete main)
Параметр Endianness формата : Big
Идентификатор кодека : A_AC3
Продолжительность : 1 ч. 40 м.
Вид битрейта : Постоянный
Битрейт : 192 Кбит/сек
Каналы : 2 канала
Расположение каналов : Front: L R
Частота : 48,0 КГц
Битовая глубина : 16 бит
Метод сжатия : С потерями
Размер потока : 138 Мбайт (6%)
Заголовок : TRACK_01_DVO_RUS
Язык : Russian
Default : Да
Forced : Да

Аудио #2
Идентификатор : 3
Формат : AC-3
Формат/Информация : Audio Coding 3
Расширение режима : CM (complete main)
Параметр Endianness формата : Big
Идентификатор кодека : A_AC3
Продолжительность : 1 ч. 40 м.
Вид битрейта : Постоянный
Битрейт : 448 Кбит/сек
Каналы : 6 каналов
Расположение каналов : Front: L C R, Side: L R, LFE
Частота : 48,0 КГц
Битовая глубина : 16 бит
Метод сжатия : С потерями
Размер потока : 321 Мбайт (13%)
Заголовок : TRACK_02_ORIGINAL_DAN
Язык : Danish
Default : Нет
Forced : Нет

Текст #1
Идентификатор : 4
Формат : UTF-8
Идентификатор кодека : S_TEXT/UTF8
Идентификатор кодека/Информация : UTF-8 Plain Text
Заголовок : TEXT_01_SUB_RUS
Язык : Russian
Default : Нет
Forced : Нет

Текст #2
Идентификатор : 5
Формат : UTF-8
Идентификатор кодека : S_TEXT/UTF8
Идентификатор кодека/Информация : UTF-8 Plain Text
Заголовок : TEXT_02_SUB_ENG
Язык : English
Default : Нет
Forced : Нет

Меню
00:00:00.000 : en:00:00:00.000
00:07:24.120 : en:00:07:24.120
00:14:23.559 : en:00:14:23.559
00:23:11.079 : en:00:23:11.079
00:37:11.440 : en:00:37:11.440
00:43:26.000 : en:00:43:26.000
00:50:42.679 : en:00:50:42.679
00:55:32.599 : en:00:55:32.599
01:02:51.280 : en:01:02:51.280
01:14:14.239 : en:01:14:14.239
01:23:58.680 : en:01:23:58.680
01:30:47.319 : en:01:30:47.319

x264 log
x264 [info]: frame I:1239 Avg QP:15.36 size: 70023
x264 [info]: frame P:31079 Avg QP:18.44 size: 27259
x264 [info]: frame B:117983 Avg QP:20.39 size: 9149
Релиз от:

Автор рипа:



Скачать История.чужой.любви.Kærlighed.på.film.Just.another.love.story.(Оле.Борнедаль).[2007.триллер.драма.криминал.BDRip-AVC].[DVO]+[Оригинал]+[Sub]x2.torrent без регистрации
Золото ЗОЛОТАЯ РАЗДАЧА! СКАЧАННОЕ НЕ ЗАСЧИТЫВАЕТСЯ! Золото
Дата: Зарегистрирован   [ Тип: внутренний ] Как тут cкачать?
MAGNET ссылка
MAGNET ссылка


Скачать .torrent

12 KB

Статус: проверено DHT
Скачан: торрент - 117 раз, раздача полностью - 5 раз
Размер: 2,32 GB
Оценка:  - (Голосов: 0)
Поблагодарили: 2
Поделиться ссылкой на эту раздачу с друзьями:
В контактеFacebookОдноклассникиTwitterLivejournalМой МирLiveinternet
 

 
Показать сообщения:    


Вы не можете начинать темы
Вы не можете отвечать на сообщения
Вы не можете редактировать свои сообщения
Вы не можете удалять свои сообщения
Вы не можете голосовать в опросах
Вы не можете прикреплять файлы к сообщениям
Вы можете скачивать файлы