Loading...
Error

Скачать Дом убийств / La maison assassinée (Жорж Лотнер) [1988, драма, BDRip] [AVO (А. Матвеев)] торрент без регистрации

 
Статистика раздачи
Размер:  1,45 GB   |    Скачан:  91 раз
Сидов:  1  [  0 KB/s  ]  
 
Автор Сообщение

Marsianka

[] 

Информация о фильме
Название: Дом убийств
Оригинальное название: La maison assassinée
Год выхода: 1988
Жанр: драма
Режиссер: Жорж Лотнер
В ролях: Патрик Брюэль, Анн Броше, Агнес Бланшо, Ингрид Хельд, Янн Коллетт, Жан-Пьер Сантье, Роже Жендли, Кристиан Барбье, Мартин Сарси, Мария Мерико...

О фильме: Серафин возвращается в свою родную деревню после первой мировой войны в 1920 году и узнает шокирующую правду. Оказывается, его семья была полностью вырезана в своем доме в то время, когда он только родился двадцать четыре года назад. Жители деревни отказываются рассказывать ему о прошлом. Серафин понимает, что он во что бы то ни стало должен узнать правду. Разрушая камень за камнем место драмы, он находит документы, которые свидетельствуют о том, что булочник Дормер, мельник Пужоль и помещик Дюпен виновны в этом преступлении. Серафин решает отомстить…



Страна: Франция
Продолжительность: 01:51:01
Перевод: Авторский одноголосый (А. Матвеев)

Файл
Кодек: XviD
Качество: BDRip
Видео: 672x368 (1,85:1), 24.000 fps, 1668 kbps, 0.281 bit/pixel
Звук: 48 kHz, AC3, 2/0 (L,R) ch, ~192.00 kbps

Общее
Полное имя : D:La maison assassinée.1988.BDRip.avi
Формат : AVI
Формат/Информация : Audio Video Interleave
Размер файла : 1,45 Гбайт
Продолжительность : 1 ч. 51 м.
Общий поток : 1869 Кбит/сек
Программа кодирования : VirtualDubModRus 1.5.10.2 (build 2542/release)
Библиотека кодирования : VirtualDubMod build 2542/release

Видео
Идентификатор : 0
Формат : MPEG-4 Visual
Профиль формата : Advanced Simple@L5
Параметр BVOP формата : 1
Параметр QPel формата : Нет
Параметр GMC формата : Без точки перехода
Параметр матрицы формата : Выборочная
Идентификатор кодека : XVID
Идентификатор кодека/Подсказка : XviD
Продолжительность : 1 ч. 51 м.
Битрейт : 1668 Кбит/сек
Ширина : 672 пикселя
Высота : 368 пикселей
Соотношение сторон : 1,85:1
Частота кадров : 24,000 кадра/сек
Цветовое пространство : YUV
Субдискретизация насыщенности : 4:2:0
Битовая глубина : 8 бит
Тип развёртки : Прогрессивная
Метод сжатия : С потерями
Бит/(Пиксели*Кадры) : 0.281
Размер потока : 1,29 Гбайт (89%)
Библиотека кодирования : XviD 66

Аудио
Идентификатор : 1
Формат : AC-3
Формат/Информация : Audio Coding 3
Расширение режима : CM (complete main)
Параметр Endianness формата : Big
Идентификатор кодека : 2000
Продолжительность : 1 ч. 51 м.
Вид битрейта : Постоянный
Битрейт : 192 Кбит/сек
Каналы : 2 канала
Расположение каналов : Front: L R
Частота : 48,0 КГц
Битовая глубина : 16 бит
Метод сжатия : С потерями
Размер потока : 152 Мбайт (10%)
Выравнивание : Разделение по промежуткам
Продолжительность промежутка : 42 мс. (1,00 видеокадр)
Время предзагрузки промежутка : 500 мс.
Заголовок : Авторский одноголосый (А. Матвеев)



Скачать Дом.убийств.La.maison.assassinée.(Жорж.Лотнер).[1988.драма.BDRip].[AVO.(А.Матвеев)].torrent без регистрации
Золото ЗОЛОТАЯ РАЗДАЧА! СКАЧАННОЕ НЕ ЗАСЧИТЫВАЕТСЯ! Золото
Дата: Зарегистрирован   [ Тип: внутренний ] Как тут cкачать?
MAGNET ссылка
MAGNET ссылка


Скачать .torrent

15 KB

Статус: проверено DHT
Скачан: торрент - 91 раз, раздача полностью - 2 раз
Размер: 1,45 GB
Оценка:  - (Голосов: 0)
Поблагодарили: 0
Поделиться ссылкой на эту раздачу с друзьями:
В контактеFacebookОдноклассникиTwitterLivejournalМой МирLiveinternet
 

 
Показать сообщения:    


Вы не можете начинать темы
Вы не можете отвечать на сообщения
Вы не можете редактировать свои сообщения
Вы не можете удалять свои сообщения
Вы не можете голосовать в опросах
Вы не можете прикреплять файлы к сообщениям
Вы можете скачивать файлы