Loading...
Error

Скачать Ночь демонов 2 / Night of the Demons 2 (Брайан Тренчард-Смит) [1994, ужасы, комедия, BDRip-AVC] [AVO]x3+[Оригинал] торрент без регистрации

 
Статистика раздачи
Размер:  2,18 GB   |    Скачан:  111 раз
Сидов:  1  [  0 KB/s  ]  
 
Автор Сообщение

Marsianka

[] 

Информация о фильме
Название: Ночь демонов 2
Оригинальное название: Night of the Demons 2
Год выхода: 1994
Жанр: ужасы, комедия
Режиссер: Брайан Тренчард-Смит
В ролях: Кристи Харрис, Дэрин Химс, Роберт Джейн, Мерл Кеннеди, Амелия Кинкейд, Род МакКери, Джонни Моран, Рик Питерс, Дженнифер Родс, Кристин Тейлор, Зои Триллинг, Лэдд Йорк, Марк Нили, Рэйчел Лонгэкир, Джеймс В. Куинн.

О фильме:
Теперь зритель знакомится с младшей сестрой Анжелы Мелиссой, у которой недавно умерли родители. Сюжет также незамысловат, как и в первом фильме. Группа подростков из академии Святой Риты отправляется на вечеринку Дня всех святых в заброшенное поместье «Hull House.

Несколько лет назад там были убиты несколько человек. Но тело одной девушки, Анжелы, так и не нашли…



Страна: США
Продолжительность: 01:35:46
Перевод: 3х Авторский одноголосый (С. Визгунов / В. Дохалов / Ю. Живов)

Файл
Кодек: h.264
Качество: BDRip
Видео: MPEG-4, 1140x640, 23.976 fps ~2492 kbps
AC3, 2 ch, 192 Кбит/с - Авторский одноголосый (С. Визгунов)
AC3, 2 ch, 192 Кбит/с - Авторский одноголосый (В. Дохалов)
AC3, 2 ch, 192 Кбит/с - Авторский одноголосый (Ю. Живов)
AC3, 2 ch, 192 Кбит/с - Оригинал
General
Unique ID : 253614109825508287068258296130960385880 (0xBECC4D040F72C79286F1C4DFDCB06758)
Complete name : M:ВидеоНочь демонов 2 (1994).mkv
Format : Matroska
Format version : Version 4 / Version 2
File size : 2.18 GiB
Duration : 1h 35mn
Overall bit rate : 3 258 Kbps
Encoded date : UTC 2014-08-05 13:09:42
Writing application : mkvmerge v6.6.0 ('The Edge Of The In Between') built on Dec 1 2013 17:55:00
Writing library : libebml v1.3.0 + libmatroska v1.4.1
TITLE : Night of the Demons 2

Video
ID : 1
Format : AVC
Format/Info : Advanced Video Codec
Format profile : High@L4.1
Format settings, CABAC : Yes
Format settings, ReFrames : 10 frames
Codec ID : V_MPEG4/ISO/AVC
Duration : 1h 35mn
Bit rate : 2 492 Kbps
Width : 1 140 pixels
Height : 640 pixels
Display aspect ratio : 16:9
Frame rate mode : Constant
Frame rate : 23.976 fps
Color space : YUV
Chroma subsampling : 4:2:0
Bit depth : 8 bits
Scan type : Progressive
Bits/(Pixel*Frame) : 0.142
Stream size : 1.62 GiB (74%)
Title : MPEG-4, 1140x640, 23.976 fps ~2492 kbps
Writing library : x264 core 130 r2273 b3065e6
Encoding settings : cabac=1 / ref=10 / deblock=1:-2:-1 / analyse=0x3:0x133 / me=umh / subme=10 / psy=1 / psy_rd=1.00:0.15 / mixed_ref=1 / me_range=32 / chroma_me=1 / trellis=2 / 8x8dct=1 / cqm=0 / deadzone=21,11 / fast_pskip=0 / chroma_qp_offset=-3 / threads=3 / lookahead_threads=1 / sliced_threads=0 / nr=0 / decimate=1 / interlaced=0 / bluray_compat=0 / constrained_intra=0 / bframes=12 / b_pyramid=2 / b_adapt=2 / b_bias=0 / direct=3 / weightb=1 / open_gop=0 / weightp=2 / keyint=240 / keyint_min=24 / scenecut=40 / intra_refresh=0 / rc_lookahead=60 / rc=2pass / mbtree=1 / bitrate=2492 / ratetol=1.0 / qcomp=0.60 / qpmin=0 / qpmax=69 / qpstep=4 / cplxblur=20.0 / qblur=0.5 / vbv_maxrate=62500 / vbv_bufsize=78125 / nal_hrd=none / ip_ratio=1.40 / aq=1:1.00
Language : English
Default : Yes
Forced : No
Color primaries : BT.709
Transfer characteristics : BT.709
Matrix coefficients : BT.709

Audio #1
ID : 2
Format : AC-3
Format/Info : Audio Coding 3
Mode extension : CM (complete main)
Format settings, Endianness : Big
Codec ID : A_AC3
Duration : 1h 35mn
Bit rate mode : Constant
Bit rate : 192 Kbps
Channel(s) : 2 channels
Channel positions : Front: L R
Sampling rate : 48.0 KHz
Bit depth : 16 bits
Compression mode : Lossy
Stream size : 132 MiB (6%)
Title : 48 KHz, AC3, 2 ch ~192 Kbps - [Визгунов]
Language : Russian
Default : Yes
Forced : No

Audio #2
ID : 3
Format : AC-3
Format/Info : Audio Coding 3
Mode extension : CM (complete main)
Format settings, Endianness : Big
Codec ID : A_AC3
Duration : 1h 35mn
Bit rate mode : Constant
Bit rate : 192 Kbps
Channel(s) : 2 channels
Channel positions : Front: L R
Sampling rate : 48.0 KHz
Bit depth : 16 bits
Compression mode : Lossy
Stream size : 132 MiB (6%)
Title : 48 KHz, AC3, 2 ch ~192 Kbps - [Дохалов]
Language : Russian
Default : No
Forced : No

Audio #3
ID : 4
Format : AC-3
Format/Info : Audio Coding 3
Mode extension : CM (complete main)
Format settings, Endianness : Big
Codec ID : A_AC3
Duration : 1h 35mn
Bit rate mode : Constant
Bit rate : 192 Kbps
Channel(s) : 2 channels
Channel positions : Front: L R
Sampling rate : 48.0 KHz
Bit depth : 16 bits
Compression mode : Lossy
Stream size : 132 MiB (6%)
Title : 48 KHz, AC3, 2 ch ~192 Kbps - [Живов]
Language : Russian
Default : No
Forced : No

Audio #4
ID : 5
Format : AC-3
Format/Info : Audio Coding 3
Mode extension : CM (complete main)
Format settings, Endianness : Big
Codec ID : A_AC3
Duration : 1h 35mn
Bit rate mode : Constant
Bit rate : 192 Kbps
Channel(s) : 2 channels
Channel positions : Front: L R
Sampling rate : 48.0 KHz
Bit depth : 16 bits
Compression mode : Lossy
Stream size : 132 MiB (6%)
Title : 48 KHz, AC3, 2 ch ~192 Kbps - Original
Language : English
Default : No
Forced : No

Menu
00:00:00.000 : en:Chapter 1
00:10:58.532 : en:Chapter 2
00:20:25.265 : en:Chapter 3
00:31:40.315 : en:Chapter 4
00:44:33.837 : en:Chapter 5
00:57:16.766 : en:Chapter 6
01:18:55.856 : en:Chapter 8



Скачать Ночь.демонов.2.Night.of.the.Demons.2.(Брайан.Тренчард-Смит).[1994.ужасы.комедия.BDRip-AVC].[AVO]x3+[Оригинал].torrent без регистрации
Золото ЗОЛОТАЯ РАЗДАЧА! СКАЧАННОЕ НЕ ЗАСЧИТЫВАЕТСЯ! Золото
Дата: Зарегистрирован   [ Тип: внутренний ] Как тут cкачать?
MAGNET ссылка
MAGNET ссылка


Скачать .torrent

12 KB

Статус: проверено DHT
Скачан: торрент - 111 раз, раздача полностью - 4 раз
Размер: 2,18 GB
Оценка:  - (Голосов: 0)
Поблагодарили: 1
Поделиться ссылкой на эту раздачу с друзьями:
В контактеFacebookОдноклассникиTwitterLivejournalМой МирLiveinternet
 

 
Показать сообщения:    


Вы не можете начинать темы
Вы не можете отвечать на сообщения
Вы не можете редактировать свои сообщения
Вы не можете удалять свои сообщения
Вы не можете голосовать в опросах
Вы не можете прикреплять файлы к сообщениям
Вы можете скачивать файлы