Loading...
Error

Скачать Порок и добродетель / Le vice et la vertu (Роже Вадим) [1963, драма, BDRip-AVC] [VO (Матвеев)]+[Sub] торрент без регистрации

 
Статистика раздачи
Размер:  2,18 GB   |    Скачан:  103 раза

Полного источника не было: 30 минут

 
Автор Сообщение

Marsianka

[] 

Год выпуска: 1963
Страна: Франция, Италия
Жанр: драма
Продолжительность: 01:46:24

Перевод: любительский (одноголосый, закадровый) [Алексей Матвеев]

Режиссер: Роже Вадим

В ролях: Анни Жирардо, Катрин Денёв, Робер Оссейн, О.Э. Хассе, Филипп Лемэр, Лучана Палуцци, Валерия Чанготтини, Поль Жегофф, Астрид Хирен, Серж Маркан

Описание: Фильм является вольной экранизацией романа "Жюстина, или Несчастья добродетели" маркиза де Сада. Действие происходит во время войны, в 1944-1945 годах. Молодая француженка (Катрин Денёв), у которой фашисты арестовали мужа в день их свадьбы, обращается за помощью к сестре (Анни Жирардо), состоящей в любовницах у высокопоставленного немецкого офицера (Робер Оссейн).



Перевод субтитров - Алексей Королёв.
Озвучка А. Матвеева доступна благодаря будулайроманову. Рип и работа со звуком - sashock86

Качество: BDRip-AVC
Формат: MKV
Видео: x264 High@L4.1, 1056x448, 24,000 fps, 2548 kbps, 0.224 bit/pixel
Аудио #1: AC3, 2.0 ch, 48 kHz, 192 kbps [Russian]
Аудио #2: AC3, 2.0 ch, 48 kHz, 192 kbps [English]
Cубтитры: русские
Общее
Уникальный идентификатор : 182617782446278296907772638609066300018 (0x8962E7D2B86C06C081D96836A7721272)
Полное имя : Le vice et la vertu.1963.BDRip-AVC.AC3.-sashock86.mkv
Формат : Matroska
Версия формата : Version 4 / Version 2
Размер файла : 2,18 Гбайт
Продолжительность : 1 ч. 46 м.
Общий поток : 2934 Кбит/сек
Название фильма : Порок и добродетель / Le vice et la vertu (1963)
Дата кодирования : UTC 2014-11-13 10:19:15
Программа кодирования : mkvmerge v7.3.0 ('Nouages') 32bit built on Oct 22 2014 18:44:01
Библиотека кодирования : libebml v1.3.0 + libmatroska v1.4.1
DURATION : 01:44:41.333000000
NUMBER_OF_FRAMES : 807
NUMBER_OF_BYTES : 54799
_STATISTICS_WRITING_APP : mkvmerge v7.3.0 ('Nouages') 32bit built on Oct 22 2014 18:44:01
_STATISTICS_WRITING_DATE_UTC : 2014-11-13 10:19:15
_STATISTICS_TAGS : BPS DURATION NUMBER_OF_FRAMES NUMBER_OF_BYTES

Видео
Идентификатор : 1
Формат : AVC
Формат/Информация : Advanced Video Codec
Профиль формата : High@L4.1
Параметр CABAC формата : Да
Параметр ReFrames формата : 12 кадров
Идентификатор кодека : V_MPEG4/ISO/AVC
Продолжительность : 1 ч. 46 м.
Битрейт : 2548 Кбит/сек
Ширина : 1056 пикселей
Высота : 448 пикселей
Соотношение сторон : 2,35:1
Режим частоты кадров : Постоянный
Частота кадров : 24,000 кадра/сек
Цветовое пространство : YUV
Субдискретизация насыщенности : 4:2:0
Битовая глубина : 8 бит
Тип развёртки : Прогрессивная
Бит/(Пиксели*Кадры) : 0.224
Размер потока : 1,85 Гбайт (85%)
Заголовок : Rip by sashock86
Библиотека кодирования : x264 core 142 r2431 ac76440
Настройки программы : cabac=1 / ref=12 / deblock=1:-3:-3 / analyse=0x3:0x113 / me=umh / subme=11 / psy=1 / psy_rd=1.04:0.01 / mixed_ref=1 / me_range=32 / chroma_me=1 / trellis=2 / 8x8dct=1 / cqm=0 / deadzone=21,11 / fast_pskip=0 / chroma_qp_offset=-5 / threads=6 / lookahead_threads=1 / sliced_threads=0 / nr=0 / decimate=1 / interlaced=0 / bluray_compat=0 / constrained_intra=0 / bframes=10 / b_pyramid=2 / b_adapt=2 / b_bias=0 / direct=1 / weightb=1 / open_gop=0 / weightp=2 / keyint=240 / keyint_min=23 / scenecut=40 / intra_refresh=0 / rc_lookahead=40 / rc=2pass / mbtree=0 / bitrate=2548 / ratetol=1.0 / qcomp=0.60 / qpmin=0 / qpmax=69 / qpstep=4 / cplxblur=20.0 / qblur=0.5 / vbv_maxrate=50000 / vbv_bufsize=62500 / nal_hrd=none / filler=0 / ip_ratio=1.40 / pb_ratio=1.30 / aq=2:0.80
Язык : French
Default : Да
Forced : Нет
DURATION : 01:46:24.000000000
NUMBER_OF_FRAMES : 153216
NUMBER_OF_BYTES : 2033315520
_STATISTICS_WRITING_APP : mkvmerge v7.3.0 ('Nouages') 32bit built on Oct 22 2014 18:44:01
_STATISTICS_WRITING_DATE_UTC : 2014-11-13 10:19:15
_STATISTICS_TAGS : BPS DURATION NUMBER_OF_FRAMES NUMBER_OF_BYTES
Основные цвета : BT.709
Характеристики трансфера : BT.709
Коэффициенты матрицы : BT.709

Аудио #1
Идентификатор : 2
Формат : AC-3
Формат/Информация : Audio Coding 3
Расширение режима : CM (complete main)
Параметр Endianness формата : Big
Идентификатор кодека : A_AC3
Продолжительность : 1 ч. 46 м.
Вид битрейта : Постоянный
Битрейт : 192 Кбит/сек
Каналы : 2 канала
Расположение каналов : Front: L R
Частота : 48,0 КГц
Битовая глубина : 16 бит
Метод сжатия : С потерями
Размер потока : 146 Мбайт (7%)
Заголовок : А. Матвеев
Язык : Russian
Default : Да
Forced : Нет

Аудио #2
Идентификатор : 3
Формат : AC-3
Формат/Информация : Audio Coding 3
Расширение режима : CM (complete main)
Параметр Endianness формата : Big
Идентификатор кодека : A_AC3
Продолжительность : 1 ч. 46 м.
Вид битрейта : Постоянный
Битрейт : 192 Кбит/сек
Каналы : 2 канала
Расположение каналов : Front: L R
Частота : 48,0 КГц
Битовая глубина : 16 бит
Метод сжатия : С потерями
Размер потока : 146 Мбайт (7%)
Язык : French
Default : Нет
Forced : Нет

Текст
Идентификатор : 4
Формат : UTF-8
Идентификатор кодека : S_TEXT/UTF8
Идентификатор кодека/Информация : UTF-8 Plain Text
Язык : Russian
Default : Нет
Forced : Нет

Меню
00:00:00.000 : en:00:00:00.000
00:09:59.375 : en:00:09:59.375
00:18:05.875 : en:00:18:05.875
00:25:54.915 : en:00:25:54.915
00:34:48.458 : en:00:34:48.458
00:44:07.458 : en:00:44:07.458
00:52:59.083 : en:00:52:59.083
00:59:54.000 : en:00:59:54.000
01:07:58.666 : en:01:07:58.666
01:17:59.207 : en:01:17:59.207
01:26:03.541 : en:01:26:03.541
01:36:01.832 : en:01:36:01.832



Скачать Порок.и.добродетель.Le.vice.et.la.vertu.(Роже.Вадим).[1963.драма.BDRip-AVC].[VO.(Матвеев)]+[Sub].torrent без регистрации
Золото ЗОЛОТАЯ РАЗДАЧА! СКАЧАННОЕ НЕ ЗАСЧИТЫВАЕТСЯ! Золото
Дата: Зарегистрирован   [ Тип: внутренний ] Как тут cкачать?
MAGNET ссылка
MAGNET ссылка


Скачать .torrent

12 KB

Статус: проверено DHT
Скачан: торрент - 103 раз, раздача полностью - 10 раз
Размер: 2,18 GB
Оценка:  - (Голосов: 0)
Поблагодарили: 1
Поделиться ссылкой на эту раздачу с друзьями:
В контактеFacebookОдноклассникиTwitterLivejournalМой МирLiveinternet
 

 
Показать сообщения:    


Вы не можете начинать темы
Вы не можете отвечать на сообщения
Вы не можете редактировать свои сообщения
Вы не можете удалять свои сообщения
Вы не можете голосовать в опросах
Вы не можете прикреплять файлы к сообщениям
Вы можете скачивать файлы