Loading...
Error

Скачать Рим / Roma (Федерико Феллини) [1972, драма, комедия, BDRip] [MVO] торрент без регистрации

 
Статистика раздачи
Размер:  1,45 GB   |    Скачан:  103 раза
Сидов:  1  [  0 KB/s  ]  
 
Автор Сообщение

Marsianka

[] 

Рим / Roma (1972) BDRip

Информация о фильме
Название: Рим
Оригинальное название: Roma
Год выхода: 1972
Жанр: драма, комедия
Режиссер: Федерико Феллини

В ролях: Марне Мейтленд, Питер Гонзалес Фалкон, Элиза Майнарди, Фиона Флоренс, Галлиано Сбарра, Паола Натали, Марио Дель Ваго, Альфредо Адами...

О фильме: Импрессионистская ода его прошлому, настоящему и будущему в форме феерической фантазии безо всякого сюжета. Карнавальное буйство жизни в ее разнообразных проявлениях, подмеченных зорким взглядом Художника, вносящего в общую хаотическую картину свои собственные воспоминания и переживания.

Чего тут только нет: и раскопки в метро, и мотоциклетный марш по ночному городу, и ретросцены в публичном доме и в любительском театре, и даже «парад церковной моды» в Ватикане. Каскад сменяющих друг друга красочных сцен, ощущение праздника, полета режиссерской фантазии, признание Феллини в любви к столице Италии.



Страна: Италия, Франция
Продолжительность: 02:00:29
Перевод: Профессиональный (многоголосый закадровый) | SomeWax

Файл
Кодек: XviD
Качество: BDRip
Видео: 688x368 (1,85:1), 23,976 fps, 1522 kbps, 0.251 bit/pixel
Звук: 48 kHz, AC3, 2/0 (L,R) ch, ~192.00 kbps

Общее
Полное имя : D:Roma.1972.BDRip.avi
Формат : AVI
Формат/Информация : Audio Video Interleave
Размер файла : 1,45 Гбайт
Продолжительность : 2 ч. 0 м.
Общий поток : 1724 Кбит/сек
Название фильма : Roma.1972.BDRip
Программа кодирования : VirtualDubModRus 1.5.10.2 (build 2542/release)
Правообладатель : rip by Rulya74

Видео
Идентификатор : 0
Формат : MPEG-4 Visual
Профиль формата : Advanced Simple@L5
Параметр BVOP формата : 1
Параметр QPel формата : Нет
Параметр GMC формата : Без точки перехода
Параметр матрицы формата : Выборочная
Идентификатор кодека : XVID
Идентификатор кодека/Подсказка : XviD
Продолжительность : 2 ч. 0 м.
Битрейт : 1522 Кбит/сек
Ширина : 688 пикселей
Высота : 368 пикселей
Соотношение сторон : 1,85:1
Частота кадров : 23,976 кадра/сек
Цветовое пространство : YUV
Субдискретизация насыщенности : 4:2:0
Битовая глубина : 8 бит
Тип развёртки : Прогрессивная
Метод сжатия : С потерями
Бит/(Пиксели*Кадры) : 0.251
Размер потока : 1,28 Гбайт (88%)
Библиотека кодирования : XviD 66

Аудио
Идентификатор : 1
Формат : AC-3
Формат/Информация : Audio Coding 3
Расширение режима : CM (complete main)
Параметр Endianness формата : Big
Идентификатор кодека : 2000
Продолжительность : 2 ч. 0 м.
Вид битрейта : Постоянный
Битрейт : 192 Кбит/сек
Каналы : 2 канала
Расположение каналов : Front: L R
Частота : 48,0 КГц
Битовая глубина : 16 бит
Метод сжатия : С потерями
Размер потока : 165 Мбайт (11%)
Выравнивание : Разделение по промежуткам
Продолжительность промежутка : 42 мс. (1,00 видеокадр)
Время предзагрузки промежутка : 500 мс.
Заголовок : Профессиональный (многоголосый закадровый) | SomeWax



Скачать Рим.Roma.(Федерико.Феллини).[1972.драма.комедия.BDRip].[MVO].torrent без регистрации
Золото ЗОЛОТАЯ РАЗДАЧА! СКАЧАННОЕ НЕ ЗАСЧИТЫВАЕТСЯ! Золото
Дата: Зарегистрирован   [ Тип: внутренний ] Как тут cкачать?
MAGNET ссылка
MAGNET ссылка


Скачать .torrent

15 KB

Статус: проверено DHT
Скачан: торрент - 103 раз, раздача полностью - 6 раз
Размер: 1,45 GB
Оценка:  - (Голосов: 0)
Поблагодарили: 0
Поделиться ссылкой на эту раздачу с друзьями:
В контактеFacebookОдноклассникиTwitterLivejournalМой МирLiveinternet
 

 
Показать сообщения:    


Вы не можете начинать темы
Вы не можете отвечать на сообщения
Вы не можете редактировать свои сообщения
Вы не можете удалять свои сообщения
Вы не можете голосовать в опросах
Вы не можете прикреплять файлы к сообщениям
Вы можете скачивать файлы