Loading...
Error

Скачать Halo: Сумерки / Halo: Nightfall (сезон 01) (Серджо Мимика-Геззан) [2014г, фантастика, боевик, триллер, приключения, WEBRip] [720p] MVO Alternative Production + Original торрент без регистрации

 
Статистика раздачи
Размер:  3,13 GB   |    Скачан:  215 раз
Сидов:  1  [  0 KB/s  ]  
 
Автор Сообщение

МихаНЕзатор

[] 

Halo: Сумерки / Halo: Nightfall

Год выпуска: 2014
Страна: США
Жанр: фантастика, боевик, триллер, приключения
Продолжительность: 00:30:00
Перевод: Любительский (многоголосый закадровый) Alternative Production по субтитрам haternity
Режиссёр: Серджо Мимика-Геззан
В ролях: Алексис Родни, Александр Бхат, Сара Армстронг, Александра Бхат, Шон Блэйни, Шейнин Бреннан, Кристина Чонг, Майк Колтер, Кристиан Райан Контрерарс и др.
Описание: Действие сериала начнётся с событий на одной из Внешних колоний человечества, Седре. Отряд Службы военной разведки под командованием капитан-лейтенанта Джеймсона Локка высажен на планету с целью расследовать предполагаемую террористическую деятельность. Отряд подвергается атаке радикалов, и становится известно, что те пытаются использовать некое биологическое оружие, способное влиять только на людей. Ради своего выживания оперативники отряда вынуждены работать вместе с одним из местных командиров Рэндаллом Аикеном. Оставаясь на Седре, отряд обнаруживает инопланетный артефакт. Тем временем на орбиту колонии прибывает частично функциональная секция уничтоженной Установки 04.

Релиз

Качество: WEBRip 720p
Формат: MKV
Видео кодек: H.264
Аудио кодек: AC3
Видео: H.264, 1280x720 (16:9), 23.976 fps, 3500 Kbps, 0.158 bit/pixel
Аудио 1: AC3, 48 kHz, stereo, 192 kbps
Аудио 2: AC3, 48 kHz, stereo, 192 kbps
Субтитры: отсутствуют

АНОНСЫ ПОПУЛЯРНЫХ РАЗДАЧ


Торрент обновлён, добавлена 5-я серия!
General
Unique ID : 171186974437794587723408643396505253629 (0x80C96979DF6A6ADDABF4544922CD36FD)
Format : Matroska
Format version : Version 4 / Version 2
File size : 796 MiB
Duration : 29mn 1s
Overall bit rate : 3 833 Kbps
Encoded date : UTC 2014-11-13 18:53:48
Writing application : mkvmerge v6.4.1 ('Omega Point') built on Sep 16 2013 22:05:10
Writing library : libebml v1.3.0 + libmatroska v1.4.1
Attachment : Yes
Video
ID : 1
Format : AVC
Format/Info : Advanced Video Codec
Format profile : High@L3.0
Format settings, CABAC : No
Format settings, ReFrames : 1 frame
Codec ID : V_MPEG4/ISO/AVC
Duration : 29mn 1s
Bit rate : 3 500 Kbps
Width : 1 280 pixels
Height : 720 pixels
Display aspect ratio : 16:9
Frame rate mode : Constant
Frame rate : 23.976 fps
Color space : YUV
Chroma subsampling : 4:2:0
Bit depth : 8 bits
Scan type : Progressive
Bits/(Pixel*Frame) : 0.158
Stream size : 700 MiB (88%)
Writing library : x264 core 116 r2019 9cc407d
Encoding settings : cabac=0 / ref=1 / deblock=1:0:0 / analyse=0x3:0x113 / me=hex / subme=7 / psy=1 / psy_rd=1.00:0.00 / mixed_ref=0 / me_range=16 / chroma_me=1 / trellis=1 / 8x8dct=1 / cqm=0 / deadzone=21,11 / fast_pskip=1 / chroma_qp_offset=-2 / threads=6 / sliced_threads=0 / nr=0 / decimate=1 / interlaced=0 / bluray_compat=0 / constrained_intra=0 / bframes=0 / weightp=2 / keyint=250 / keyint_min=23 / scenecut=40 / intra_refresh=0 / rc_lookahead=40 / rc=abr / mbtree=1 / bitrate=3500 / ratetol=1.0 / qcomp=0.60 / qpmin=0 / qpmax=69 / qpstep=4 / ip_ratio=1.40 / aq=1:1.00
Default : Yes
Forced : No
Audio #1
ID : 2
Format : AC-3
Format/Info : Audio Coding 3
Mode extension : CM (complete main)
Format settings, Endianness : Big
Codec ID : A_AC3
Duration : 29mn 1s
Bit rate mode : Constant
Bit rate : 192 Kbps
Channel count : 2 channels
Channel positions : Front: L R
Sampling rate : 48.0 KHz
Bit depth : 16 bits
Compression mode : Lossy
Stream size : 39.9 MiB (5%)
Title : Alt Pro
Language : Russian
Default : Yes
Forced : No
Audio #2
ID : 3
Format : AC-3
Format/Info : Audio Coding 3
Mode extension : CM (complete main)
Format settings, Endianness : Big
Codec ID : A_AC3
Duration : 29mn 1s
Bit rate mode : Constant
Bit rate : 192 Kbps
Channel count : 2 channels
Channel positions : Front: L R
Sampling rate : 48.0 KHz
Bit depth : 16 bits
Compression mode : Lossy
Stream size : 39.9 MiB (5%)
Language : English
Default : No
Forced : No
Внимание! Раздача ведётся путём добавления новых серий; при каждом добавлении создётся новый торрент. Чтобы начать докачку новой серии, пользователям необходимо сделать следующее:Остановить скачивание.
Удалить старый торрент у себя из клиента (старые серии удалять не надо).
Скачать новый торрент и запустить его у себя в клиенте вместо старого, при этом указать клиенту путь в старую папку куда и должно происходить скачивание новых серий.Ваш клиент при этом должен произвести хеширование (проверку) старой папки (если не производит сам - помогите ему сделать это), и будет докачивать только те серии которых у вас ещё нет. Старые серии при этом не удаляются, а продолжают раздаваться!
Eсли вы уже удалили старые серии, то предотвратить повторную закачку старых серий можно, отжав галочку в соответсвующих местах при запуске нового торрента. По возможности, желательно не удалять старые серии как можно дольше чтобы релизёр не столько продолжал раздавать старые серии, а смог сконцентрироваться на новых.



Скачать Halo.Сумерки.Halo.Nightfall.(сезон.01).(Серджо.Мимика-Геззан).[2014г.фантастика.боевик.триллер.приключения.WEBRip].[720p].MVO.Alternative.Production.+.Original.torrent без регистрации
Золото ЗОЛОТАЯ РАЗДАЧА! СКАЧАННОЕ НЕ ЗАСЧИТЫВАЕТСЯ! Золото
Дата: Зарегистрирован   [ Тип: внутренний ] Как тут cкачать?
MAGNET ссылка
MAGNET ссылка


Скачать .torrent

17 KB

Статус: проверено DHT
Скачан: торрент - 215 раз, раздача полностью - 56 раз
Размер: 3,13 GB
Оценка:  5 (Голосов: 1)
Поблагодарили: 7
Поделиться ссылкой на эту раздачу с друзьями:
В контактеFacebookОдноклассникиTwitterLivejournalМой МирLiveinternet
 

 

МихаНЕзатор

[] 

Раздача обновлена.
 
Показать сообщения:    


Вы не можете начинать темы
Вы не можете отвечать на сообщения
Вы не можете редактировать свои сообщения
Вы не можете удалять свои сообщения
Вы не можете голосовать в опросах
Вы не можете прикреплять файлы к сообщениям
Вы можете скачивать файлы