Loading...
Error

Скачать Воссоединение семьи Мэдеи / Madea's Family Reunion (Тайлер Перри) [2006, драма, мелодрама, комедия, HDTVRip] [DVO] торрент без регистрации

 
Статистика раздачи
Размер:  1,46 GB   |    Скачан:  161 раз

Полного источника не было: 24 минуты

 
Автор Сообщение

Marsianka

[] 

Информация о фильме
Название: Воссоединение семьи Мэдеи
Оригинальное название: Madea's Family Reunion
Год выхода: 2006
Жанр: драма, мелодрама, комедия
Режиссер: Тайлер Перри
В ролях: Тайлер Перри, Блэр Андервуд, Линн Уитфилд, Борис Коджо, Лиза Арринделл Андерсон, Майя Энджелоу, Рошелль Эйтс, Дженифер Льюис, Танги Миллер, Кеке Палмер

О фильме:
Бабушка семейства Симмонсов, Мэдея задумала собрать всех своих родных вместе, воспользовавшись в качестве повода похоронами сестры и свадьбой внучки, запланированными на один и тот же уик-энд. Проблема в том, что неуемная натура Мэдеи снова приводит ее в ситуацию, справится с которой оказывается не совсем просто даже ей. Во-первых, она должна присматривать за отпущенной судом на ее поруки бунтаркой Ники…



Страна: США
Студия: Lions Gate Films Inc.
Продолжительность: 01:44:55
Перевод: Профессиональный двухголосый (SDI Media)

Файл
Кодек: XviD
Качество: HDTVRip
Видео: 1790 Кбит/с, 720x400, 25.000 кадр/с
Звук: Русский (АС3, 2 ch, 192 Кбит/с)

Семпл
Общее
Полное имя : Vossoedinenie.semi.Medej.2006.HDTVRip.MediaClub.avi
Формат : AVI
Формат/Информация : Audio Video Interleave
Размер файла : 1,46 Гбайт
Продолжительность : 1 ч. 44 м.
Общий поток : 1992 Кбит/сек
Название фильма : MediaClub
Программа кодирования : VirtualDubMod 1.5.10.2 (build 2540/release)
Библиотека кодирования : VirtualDubMod build 2540/release

Видео
Идентификатор : 0
Формат : MPEG-4 Visual
Профиль формата : Advanced Simple@L5
Параметр BVOP формата : 2
Параметр QPel формата : Нет
Параметр GMC формата : Без точки перехода
Параметр матрицы формата : Default (MPEG)
Идентификатор кодека : XVID
Идентификатор кодека/Подсказка : XviD
Продолжительность : 1 ч. 44 м.
Битрейт : 1790 Кбит/сек
Ширина : 720 пикселей
Высота : 400 пикселей
Соотношение сторон : 16:9
Частота кадров : 25,000 кадров/сек
Цветовое пространство : YUV
Субдискретизация насыщенности : 4:2:0
Битовая глубина : 8 бит
Тип развёртки : Прогрессивная
Метод сжатия : С потерями
Бит/(Пиксели*Кадры) : 0.249
Размер потока : 1,31 Гбайт (90%)
Библиотека кодирования : XviD 65

Аудио
Идентификатор : 1
Формат : AC-3
Формат/Информация : Audio Coding 3
Расширение режима : CM (complete main)
Параметр Endianness формата : Big
Идентификатор кодека : 2000
Продолжительность : 1 ч. 44 м.
Вид битрейта : Постоянный
Битрейт : 192 Кбит/сек
Каналы : 2 канала
Расположение каналов : Front: L R
Частота : 48,0 КГц
Битовая глубина : 16 бит
Метод сжатия : С потерями
Размер потока : 144 Мбайт (10%)
Выравнивание : Разделение по промежуткам
Продолжительность промежутка : 40 мс. (1,00 видеокадр)
Время предзагрузки промежутка : 500 мс.


Премия канала «MTV», 2006 год
Номинации (1):

Лучшая комедийная роль (Тайлер Перри)
Релиз от:



Скачать Воссоединение.семьи.Мэдеи.Madea's.Family.Reunion.(Тайлер.Перри).[2006.драма.мелодрама.комедия.HDTVRip].[DVO].torrent без регистрации
Золото ЗОЛОТАЯ РАЗДАЧА! СКАЧАННОЕ НЕ ЗАСЧИТЫВАЕТСЯ! Золото
Дата: Зарегистрирован   [ Тип: внутренний ] Как тут cкачать?
MAGNET ссылка
MAGNET ссылка


Скачать .torrent

15 KB

Статус: проверено DHT
Скачан: торрент - 161 раз, раздача полностью - 0 раз
Размер: 1,46 GB
Оценка:  - (Голосов: 0)
Поблагодарили: 1
Поделиться ссылкой на эту раздачу с друзьями:
В контактеFacebookОдноклассникиTwitterLivejournalМой МирLiveinternet
 

 
Показать сообщения:    


Вы не можете начинать темы
Вы не можете отвечать на сообщения
Вы не можете редактировать свои сообщения
Вы не можете удалять свои сообщения
Вы не можете голосовать в опросах
Вы не можете прикреплять файлы к сообщениям
Вы можете скачивать файлы