Loading...
Error

Скачать Эль Греко / El Greco (Яннис Смарагдис) [2007, драма, биография, DVDRip-AVC] [MVO]+[Sub] торрент без регистрации

 
Статистика раздачи
Размер:  1,47 GB   |    Скачан:  159 раз

Полного источника не было: 23 минуты

 
Автор Сообщение

Marsianka

[] 

Информация о фильме
Название: Эль Греко
Оригинальное название: El Greco
Год выхода: 2007
Жанр: драма, биография
Режиссер: Яннис Смарагдис
В ролях: Ник Эшдон, Хуан Диего Ботто, Лайя Марулл, Лакис Лазопулос, Димитра Мацука, Сотирис Мустакас, Дина Конста, Йоргос Христодулу, Димитрис Каливокас, Йоргос Чаралабидис

О фильме:
Он не оставил после себя учеников, не создал собственной школы и не примкнул ни к одному из художественных направлений того времени. Его искусство было не только шире пределов любой национальной традиции, но и далеко опередило свое время. Уроженец острова Крит, Доминикос Теотокопулос получил прозвище Грек. Именно под этим именем он и вошел в историю искусства. Бежав от судебных тяжб с Крита, художник много лет проработал в Италии, а позже осел в Испании, в Толедо. О его жизни известно крайне мало, не сохранилось ни одного достоверного автопортрета, исчезла могила с его прахом, давно разрушен дворец маркиза де Вильены, где он жил. Да и само искусство толедского мастера пребывало в забвении вплоть до начала XX века. Но время сохранило самое главное — его картины.


Страна: Испания, Греция, Венгрия
Студия: Alexandros Film, Generalitat de Catalunya - Institut Català de les Indústries Culturals (ICIC), Graal
Продолжительность: 01:52:39.240
Перевод: Профессиональный (многоголосый, закадровый) R5

Файл
Кодек: h.264
Качество: DVDRip-AVC
Видео: 704x528 (1.913) @ 1010x528 (анаморф), 25.000 fps, AVC, ~974 Kbps, 0.105 bits/pixel
Русский, 48.0 KHz, AC3, 6 ch, 448 Kbps
Английский, 48.0 KHz, AC3, 6 ch, 448 Kbps
Субтитры: Русские, VobSub
Исходник R5, изображение - "замыленное", поэтому и жмется отлично без потери "качества".
Общее
Уникальный идентификатор : 221145284956171779526257601832860526768 (0xA65F085AD06C074CAD44F544D87C28B0)
Полное имя : H:FilmsEl_Greko.2007.DVDRip-AVC.mkv
Формат : Matroska
Версия формата : Version 4 / Version 2
Размер файла : 1,47 Гбайт
Продолжительность : 1 ч. 52 м.
Общий поток : 1873 Кбит/сек
Дата кодирования : UTC 2014-11-10 19:15:58
Программа кодирования : mkvmerge v7.3.0 ('Nouages') 64bit built on Oct 22 2014 18:53:34
Библиотека кодирования : libebml v1.3.0 + libmatroska v1.4.1
DURATION : 01:47:57.873000000
NUMBER_OF_FRAMES : 961
NUMBER_OF_BYTES : 1188576
_STATISTICS_WRITING_APP : mkvmerge v7.3.0 ('Nouages') 64bit built on Oct 22 2014 18:53:34
_STATISTICS_WRITING_DATE_UTC : 2014-11-10 19:15:58
_STATISTICS_TAGS : BPS DURATION NUMBER_OF_FRAMES NUMBER_OF_BYTES

Видео
Идентификатор : 1
Формат : AVC
Формат/Информация : Advanced Video Codec
Профиль формата : High@L4.1
Параметр CABAC формата : Да
Параметр ReFrames формата : 16 кадров
Идентификатор кодека : V_MPEG4/ISO/AVC
Продолжительность : 1 ч. 52 м.
Битрейт : 974 Кбит/сек
Ширина : 704 пикселя
Высота : 528 пикселей
Соотношение сторон : 1,913
Соотношение сторон в оригинале : 1,914
Режим частоты кадров : Постоянный
Частота кадров : 25,000 кадров/сек
Цветовое пространство : YUV
Субдискретизация насыщенности : 4:2:0
Битовая глубина : 8 бит
Тип развёртки : Прогрессивная
Бит/(Пиксели*Кадры) : 0.105
Размер потока : 757 Мбайт (50%)
Библиотека кодирования : x264 core 142 r2431 ac76440
Настройки программы : cabac=1 / ref=16 / deblock=1:0:0 / analyse=0x3:0x133 / me=umh / subme=10 / psy=1 / psy_rd=1.10:0.10 / mixed_ref=1 / me_range=32 / chroma_me=1 / trellis=2 / 8x8dct=1 / cqm=0 / deadzone=21,11 / fast_pskip=0 / chroma_qp_offset=-3 / threads=8 / lookahead_threads=2 / sliced_threads=0 / nr=0 / decimate=0 / interlaced=0 / bluray_compat=0 / constrained_intra=0 / bframes=12 / b_pyramid=2 / b_adapt=2 / b_bias=0 / direct=3 / weightb=1 / open_gop=0 / weightp=2 / keyint=250 / keyint_min=25 / scenecut=60 / intra_refresh=0 / rc_lookahead=60 / rc=2pass / mbtree=0 / bitrate=974 / ratetol=1.0 / qcomp=0.60 / qpmin=0 / qpmax=69 / qpstep=4 / cplxblur=20.0 / qblur=0.5 / vbv_maxrate=50000 / vbv_bufsize=62500 / nal_hrd=none / filler=0 / ip_ratio=1.40 / pb_ratio=1.30 / aq=1:1.00
Default : Нет
Forced : Нет
Коэффициенты матрицы : BT.601
colour_range : Limited
DURATION : 01:52:39.240000000
NUMBER_OF_FRAMES : 168981
NUMBER_OF_BYTES : 822425402
_STATISTICS_WRITING_APP : mkvmerge v7.3.0 ('Nouages') 64bit built on Oct 22 2014 18:53:34
_STATISTICS_WRITING_DATE_UTC : 2014-11-10 19:15:58
_STATISTICS_TAGS : BPS DURATION NUMBER_OF_FRAMES NUMBER_OF_BYTES

Аудио #1
Идентификатор : 2
Формат : AC-3
Формат/Информация : Audio Coding 3
Расширение режима : CM (complete main)
Параметр Endianness формата : Big
Идентификатор кодека : A_AC3
Продолжительность : 1 ч. 52 м.
Вид битрейта : Постоянный
Битрейт : 448 Кбит/сек
Каналы : 6 каналов
Расположение каналов : Front: L C R, Side: L R, LFE
Частота : 48,0 КГц
Битовая глубина : 16 бит
Метод сжатия : С потерями
Размер потока : 361 Мбайт (24%)
Язык : Russian
Default : Да
Forced : Нет

Аудио #2
Идентификатор : 3
Формат : AC-3
Формат/Информация : Audio Coding 3
Расширение режима : CM (complete main)
Параметр Endianness формата : Big
Идентификатор кодека : A_AC3
Продолжительность : 1 ч. 52 м.
Вид битрейта : Постоянный
Битрейт : 448 Кбит/сек
Каналы : 6 каналов
Расположение каналов : Front: L C R, Side: L R, LFE
Частота : 48,0 КГц
Битовая глубина : 16 бит
Метод сжатия : С потерями
Размер потока : 361 Мбайт (24%)
Язык : English
Default : Нет
Forced : Нет

Текст
Идентификатор : 4
Формат : VobSub
Режим смешивания : zlib
Идентификатор кодека : S_VOBSUB
Идентификатор кодека/Информация : The same subtitle format used on DVDs
Язык : Russian
Default : Нет
Forced : Нет

Меню
00:00:00.000 : en:Chapter 01
00:08:53.480 : en:Chapter 02
00:18:16.080 : en:Chapter 03
00:26:06.160 : en:Chapter 04
00:36:10.960 : en:Chapter 05
00:45:15.760 : en:Chapter 06
00:53:59.040 : en:Chapter 07
01:04:44.440 : en:Chapter 08
01:15:06.800 : en:Chapter 09
01:22:09.480 : en:Chapter 10
01:32:58.440 : en:Chapter 11
01:44:29.160 : en:Chapter 12
01:52:39.200 : en:Chapter 13
frame I:1011 Avg QP:15.96 size: 32484
frame P:35274 Avg QP:18.93 size: 11120
frame B:132696 Avg QP:20.27 size: 2994
Релиз от: Temperest



Скачать Эль.Греко.El.Greco.(Яннис.Смарагдис).[2007.драма.биография.DVDRip-AVC].[MVO]+[Sub].torrent без регистрации
Золото ЗОЛОТАЯ РАЗДАЧА! СКАЧАННОЕ НЕ ЗАСЧИТЫВАЕТСЯ! Золото
Дата: Зарегистрирован   [ Тип: внутренний ] Как тут cкачать?
MAGNET ссылка
MAGNET ссылка


Скачать .torrent

15 KB

Статус: проверено DHT
Скачан: торрент - 159 раз, раздача полностью - 1 раз
Размер: 1,47 GB
Оценка:  - (Голосов: 0)
Поблагодарили: 1
Поделиться ссылкой на эту раздачу с друзьями:
В контактеFacebookОдноклассникиTwitterLivejournalМой МирLiveinternet
 

 
Показать сообщения:    


Вы не можете начинать темы
Вы не можете отвечать на сообщения
Вы не можете редактировать свои сообщения
Вы не можете удалять свои сообщения
Вы не можете голосовать в опросах
Вы не можете прикреплять файлы к сообщениям
Вы можете скачивать файлы