Loading...
Error

Скачать Империя муравьев / Empire of the Ants (Берт А. Гордон) [1977, фантастика, ужасы, HDTVRip] [DVO] торрент без регистрации

 
Статистика раздачи
Размер:  1,46 GB   |    Скачан:  108 раз
Сидов:  1  [  0 KB/s  ]   Личеров:  1  [  0 KB/s  ]  
 
Автор Сообщение

Marsianka

[] 

Название: Империя муравьев
Оригинальное название: Empire of the Ants
Год выхода: 1977
Выпущено: США, Cinema 77
Жанр: фантастика, ужасы
Режиссер: Берт А. Гордон
В ролях: Джоан Коллинз, Роберт Лэнсинг, Джон Дэвид Карсон, Альберт Сэлми, Джэклин Скотт, Памела Сьюзан Шуп, Роберт Пайн, Эдвард Пауэр, Брук Пэланс, Том Фадден, Ирен Тедроу, Джим Уилас

О фильме: Агент по недвижимости Мэрилин приглашает группу инвесторов осмотреть местность на побережье Флориды, предполагаемую для застройки. Но на группу людей нападают гигантские муравьи, ставшие такими, наевшись радиоактивных отходов. Дело в том, что отходы, подлежавшие захоронению в океане, были выброшены на берег и разгерметизировались. Муравьи стали не только большими, но и наделенными телекинетическими способностями…



Качество: HDTVRip исходник (HDTV 1080i)
Видео: XviD, 2264 Кбит/с, 720x400
Аудио: Русский, AC3, 2 ch, 192 Кбит/с
Продолжительность: 01:24:57
Перевод: Профессиональный (двухголосый) (НТВ +)

Спасибо за предоставленный исходник 1234plz

General
Complete name : G:Empire of the Ants 1977 HDTVRip 1.46.avi
Format : AVI
Format/Info : Audio Video Interleave
File size : 1.46 GiB
Duration : 1h 24mn
Overall bit rate : 2 466 Kbps
Writing application : VirtualDubModRus 1.5.10.2 (build 2542/release)
Writing library : VirtualDubMod build 2542/release

Video
ID : 0
Format : MPEG-4 Visual
Format profile : Advanced Simple@L5
Format settings, BVOP : 2
Format settings, QPel : No
Format settings, GMC : No warppoints
Format settings, Matrix : Default (H.263)
Codec ID : XVID
Codec ID/Hint : XviD
Duration : 1h 24mn
Bit rate : 2 264 Kbps
Width : 720 pixels
Height : 400 pixels
Display aspect ratio : 16:9
Frame rate : 25.000 fps
Color space : YUV
Chroma subsampling : 4:2:0
Bit depth : 8 bits
Scan type : Progressive
Compression mode : Lossy
Bits/(Pixel*Frame) : 0.315
Stream size : 1.34 GiB (92%)
Writing library : XviD 57

Audio
ID : 1
Format : AC-3
Format/Info : Audio Coding 3
Mode extension : CM (complete main)
Format settings, Endianness : Big
Codec ID : 2000
Duration : 1h 24mn
Bit rate mode : Constant
Bit rate : 192 Kbps
Channel(s) : 2 channels
Channel positions : Front: L R
Sampling rate : 48.0 KHz
Bit depth : 16 bits
Compression mode : Lossy
Stream size : 117 MiB (8%)
Alignment : Split accross interleaves
Interleave, duration : 40 ms (1.00 video frame)
Interleave, preload duration : 500 ms
Релиз от:



Скачать Империя.муравьев.Empire.of.the.Ants.(Берт.А.Гордон).[1977.фантастика.ужасы.HDTVRip].[DVO].torrent без регистрации
Золото ЗОЛОТАЯ РАЗДАЧА! СКАЧАННОЕ НЕ ЗАСЧИТЫВАЕТСЯ! Золото
Дата: Зарегистрирован   [ Тип: внутренний ] Как тут cкачать?
MAGNET ссылка
MAGNET ссылка


Скачать .torrent

15 KB

Статус: проверено DHT
Скачан: торрент - 108 раз, раздача полностью - 51 раз
Размер: 1,46 GB
Оценка:  - (Голосов: 0)
Поблагодарили: 1
Поделиться ссылкой на эту раздачу с друзьями:
В контактеFacebookОдноклассникиTwitterLivejournalМой МирLiveinternet
 

 
Показать сообщения:    


Вы не можете начинать темы
Вы не можете отвечать на сообщения
Вы не можете редактировать свои сообщения
Вы не можете удалять свои сообщения
Вы не можете голосовать в опросах
Вы не можете прикреплять файлы к сообщениям
Вы можете скачивать файлы