Loading...
Error

Скачать Двухсотлетний человек / Bicentennial Man (Крис Коламбус) [1999, фантастика, фэнтези, драма, мелодрама, HDTVRip] [Dub] торрент без регистрации

 
Статистика раздачи
Размер:  760 MB   |    Скачан:  100 раз
Сидов:  2  [  0 KB/s  ]  
 
Автор Сообщение

Marsianka

[] 

Двухсотлетний человек / Bicentennial Man
Год выпуска: 1999
Страна: США, Германия
Жанр: фантастика, фэнтези, драма, мелодрама
Продолжительность: 02:06:03
Перевод: Профессиональный (дублированный)
Русские субтитры: нет

Режиссер: Крис Коламбус / Chris Columbus

В ролях: Робин Уильямс, Эмбет Дэвидц, Сэм Нилл, Оливер Плэтт, Кирстен Уоррен, Венди Крюсон, Халли Кейт Айзенберг, Анджела Лэндис, Джон Майкл Хиггинс и др.

Описание: Начало нового тысячелетия; происходит прорыв в глобальных технологиях. Люди уже не заводят дома собак и кошек: они покупают себе роботов. Вот и семья Мартинов приобретает себе необычный подарок: робота нового поколения NDR-114, а в обычной жизни просто Эндрю.
Купленный как прибор, запрограммированный для выполнения домашней работы, Эндрю вдруг начинает испытывать странные ощущения. Он еще не знает, что это называется чувствами.



Качество: HDTVRip [Исходник HDTV 1080p]
Формат: AVI
Видео кодек: XviD
Аудио кодек: MP3
Видео: 592x336 (1.76:1), 25 fps, XviD build 73 ~705 kbps avg, 0.14 bit/pixel
Аудио: 48 kHz, MPEG Layer 3, 2 ch, ~128.00 kbps avg
Раздача от:
D:Мои рипыBicentennial.Man1999.HDTVRip.dexter_lex.avi
General
Complete name : D:Мои рипыBicentennial.Man1999.HDTVRip.dexter_lex.avi
Format : AVI
Format/Info : Audio Video Interleave
File size : 760 MiB
Duration : 2h 6mn
Overall bit rate : 843 Kbps
Writing application : VirtualDubMod 1.5.10.3 | www.virtualdub-fr.org || (build 2550/release)
Writing library : VirtualDubMod build 2550/release
Video #0
ID : 0
Format : MPEG-4 Visual
Format profile : Advanced Simple@L5
Format settings, BVOP : 1
Format settings, QPel : No
Format settings, GMC : No warppoints
Format settings, Matrix : Custom
Codec ID : XVID
Codec ID/Hint : XviD
Duration : 2h 6mn
Bit rate : 705 Kbps
Width : 592 pixels
Height : 336 pixels
Display aspect ratio : 16:9
Frame rate : 25.000 fps
Color space : YUV
Chroma subsampling : 4:2:0
Bit depth : 8 bits
Scan type : Progressive
Compression mode : Lossy
Bits/(Pixel*Frame) : 0.142
Stream size : 636 MiB (84%)
Writing library : XviD 73
Audio #1
ID : 1
Format : MPEG Audio
Format version : Version 1
Format profile : Layer 3
Codec ID : 55
Codec ID/Hint : MP3
Duration : 2h 6mn
Bit rate mode : Constant
Bit rate : 128 Kbps
Channel(s) : 2 channels
Sampling rate : 48.0 KHz
Compression mode : Lossy
Stream size : 115 MiB (15%)
Alignment : Aligned on interleaves
Interleave, duration : 40 ms (1.00 video frame)
Interleave, preload duration : 504 ms
Writing library : LAME3.99r
Encoding settings : -m s -V 4 -q 2 -lowpass 17 -b 128



Скачать Двухсотлетний.человек.Bicentennial.Man.(Крис.Коламбус).[1999.фантастика.фэнтези.драма.мелодрама.HDTVRip].[Dub].torrent без регистрации
Золото ЗОЛОТАЯ РАЗДАЧА! СКАЧАННОЕ НЕ ЗАСЧИТЫВАЕТСЯ! Золото
Дата: Зарегистрирован   [ Тип: внешний ] Как тут cкачать?
MAGNET ссылка
MAGNET ссылка


Скачать .torrent

15 KB

Статус: проверено DHT
Скачан: торрент - 100 раз, раздача полностью - 2 раз
Размер: 760 MB
Оценка:  - (Голосов: 0)
Поблагодарили: 1
Поделиться ссылкой на эту раздачу с друзьями:
В контактеFacebookОдноклассникиTwitterLivejournalМой МирLiveinternet
 

 
Показать сообщения:    


Вы не можете начинать темы
Вы не можете отвечать на сообщения
Вы не можете редактировать свои сообщения
Вы не можете удалять свои сообщения
Вы не можете голосовать в опросах
Вы не можете прикреплять файлы к сообщениям
Вы можете скачивать файлы