Loading...
Error

Скачать Седьмая печать / The Seventh Seal / Det Sjunde inseglet (Ингмар Бергман) [1957, фэнтези, драма, BDRip-AVC] [MVO]+[AVO]+[Sub]x2 торрент без регистрации

 
Статистика раздачи
Размер:  2,31 GB   |    Скачан:  105 раз
Сидов:  1  [  0 KB/s  ]  
 
Автор Сообщение

Marsianka

[] 

Название: Седьмая печать
Оригинальное название: Det sjunde inseglet
Год выпуска: 1957
Жанр: фэнтези, драма
Выпущено: Швеция, Svensk Filmindustri (SF) AB
Продолжительность: 01:37:38
Перевод: Профессиональный многоголосый / Авторский одноголосый (Рябов)
Субтитры: Русские, английские

Режиссер: Ингмар Бергман

В ролях: Гуннар Бьёрнстранд, Макс фон Сюдов, Бенгт Экерот, Нильс Поппе, Биби Андерссон, Инга Гилль, Мод Ханссон, Инга Ландгре, Гуннель Линдблум, Бертиль Андерберг, Андерс Эк, Аке Фриделль, Гуннар Ольссон, Эрик Страндмарк

О фильме:
В середине XIV века рыцарь Антониус Блок и его оруженосец возвращаются после десяти лет крестовых походов в родную Швецию. Блок устал от жизни, и не видит вокруг себя ничего, ради чего стоило бы продолжать влачить свое существование. Но прежде он хочет убедиться в том, что Бог — есть…



Качество: BDRip (AVC)
Видео: MPEG-4 AVC, 3000 Кбит/с, 768x576
Аудио: Русский (AC3, 2 ch, 192 Кбит/с)
«Серебряная лента» лучшему режиссёру иностранной картины в Италии в 1960 году, приз испанских кинокритиков за лучший иностранный фильм в 1962 году.

Каннский кинофестиваль, 1957 год
Победитель (1):
Особый приз жюри

Номинации (1):
Золотая пальмовая ветвь
▣ В основу фильма положена пьеса Бергмана «Роспись по дереву».
▣ Название взято из «Откровения Иоанна Богослова».
▣ В сцене сожжения ведьмы, когда камера делает долгий проезд от стражников, ломающих хворост, до костра, на заднем плане можно увидеть крышу и окна многоэтажного дома.
▣ В финале фильма "Последний киногерой" с А.Шварценеггером, используется образ смерти, именно из "Седьмой печати" И.Бергмана
Общее
Уникальный идентификатор : 192619361101352313248295200964302822253 (0x90E923B8FBED701A921D83F5091F5B6D)
Полное имя : D:фильмыSedmaja.Pechat.1957.x264.BDRip.(AVC).ExKinoRay.mkv
Формат : Matroska
Размер файла : 2,31 Гбайт
Продолжительность : 1 ч. 37 м.
Общий поток : 3382 Кбит/сек
Название фильма : Sedmaja.Pechat.1957.x264.BDRip.(AVC).ExKinoRay
Дата кодирования : UTC 2014-10-07 19:41:50
Программа кодирования : mkvmerge v4.0.0 ('The Stars were mine') сборка от Jun 6 2010 16:18:42
Библиотека кодирования : libebml v1.0.0 + libmatroska v1.0.0

Видео
Идентификатор : 1
Формат : AVC
Формат/Информация : Advanced Video Codec
Профиль формата : High@L4.1
Параметр CABAC формата : Да
Параметр ReFrames формата : 8 кадров
Идентификатор кодека : V_MPEG4/ISO/AVC
Продолжительность : 1 ч. 37 м.
Битрейт : 3000 Кбит/сек
Ширина : 768 пикс.
Высота : 576 пикс.
Соотношение сторон : 4:3
Частота кадров : 23,976 кадр/сек
Цветовое пространство : YUV
Подвыборка цветности : 4:2:0
Битовая глубина : 8 бит
Тип развёртки : Прогрессивная
Бит/(Пиксели*Кадры) : 0.283
Размер потока : 2,00 Гбайт (87%)
Заголовок : Rip by Enigma-Vladislav71
Библиотека кодирования : x264 core 129 r2245 bc13772
Настройки программы : cabac=1 / ref=8 / deblock=1:-2:-2 / analyse=0x3:0x133 / me=umh / subme=11 / psy=1 / psy_rd=1.00:0.00 / mixed_ref=1 / me_range=48 / chroma_me=1 / trellis=2 / 8x8dct=1 / cqm=0 / deadzone=21,11 / fast_pskip=0 / chroma_qp_offset=-2 / threads=3 / lookahead_threads=1 / sliced_threads=0 / nr=0 / decimate=0 / interlaced=0 / bluray_compat=0 / constrained_intra=0 / bframes=8 / b_pyramid=2 / b_adapt=2 / b_bias=0 / direct=3 / weightb=1 / open_gop=0 / weightp=2 / keyint=240 / keyint_min=23 / scenecut=40 / intra_refresh=0 / rc=2pass / mbtree=0 / bitrate=3000 / ratetol=1.0 / qcomp=0.60 / qpmin=10 / qpmax=51 / qpstep=4 / cplxblur=20.0 / qblur=0.5 / ip_ratio=1.40 / pb_ratio=1.30 / aq=2:1.00
Язык : English

Аудио #1
Идентификатор : 2
Формат : AC-3
Формат/Информация : Audio Coding 3
Расширение режима : CM (complete main)
Идентификатор кодека : A_AC3
Продолжительность : 1 ч. 37 м.
Вид битрейта : Постоянный
Битрейт : 192 Кбит/сек
Каналы : 2 канала
Расположение каналов : Front: L R
Частота : 48,0 КГц
Битовая глубина : 16 бит
Метод сжатия : С потерями
Размер потока : 134 Мбайт (6%)
Заголовок : Профессиональный многоголосый
Язык : Russian

Аудио #2
Идентификатор : 3
Формат : AC-3
Формат/Информация : Audio Coding 3
Профиль формата : Dolby Digital
Расширение режима : CM (complete main)
Идентификатор кодека : A_AC3
Продолжительность : 1 ч. 37 м.
Вид битрейта : Постоянный
Битрейт : 192 Кбит/сек
Каналы : 2 канала
Расположение каналов : Front: L R
Частота : 48,0 КГц
Битовая глубина : 16 бит
Метод сжатия : С потерями
Размер потока : 134 Мбайт (6%)
Заголовок : Авторский одноголосый (Рябов)
Язык : Russian

Текст #1
Идентификатор : 4
Формат : UTF-8
Идентификатор кодека : S_TEXT/UTF8
Идентификатор кодека/Информация : UTF-8 Plain Text
Язык : Russian

Текст #2
Идентификатор : 5
Формат : UTF-8
Идентификатор кодека : S_TEXT/UTF8
Идентификатор кодека/Информация : UTF-8 Plain Text
Язык : Russian

Текст #3
Идентификатор : 6
Формат : UTF-8
Идентификатор кодека : S_TEXT/UTF8
Идентификатор кодека/Информация : UTF-8 Plain Text
Язык : English

Меню
00:00:00.000 : en:00:00:00.000
00:01:33.093 : en:00:01:33.093
00:08:35.890 : en:00:08:35.890
00:16:31.156 : en:00:16:31.156
00:27:39.532 : en:00:27:39.532
00:32:41.292 : en:00:32:41.292
00:36:49.207 : en:00:36:49.207
00:43:16.135 : en:00:43:16.135
00:49:03.940 : en:00:49:03.940
00:58:51.069 : en:00:58:51.069
01:02:37.336 : en:01:02:37.336
01:10:08.954 : en:01:10:08.954
01:18:59.735 : en:01:18:59.735
01:26:22.135 : en:01:26:22.135
01:34:22.573 : en:01:34:22.573
Релиз от:

Авторы релиза:



Скачать Седьмая.печать.The.Seventh.Seal.Det.Sjunde.inseglet.(Ингмар.Бергман).[1957.фэнтези.драма.BDRip-AVC].[MVO]+[AVO]+[Sub]x2.torrent без регистрации
Золото ЗОЛОТАЯ РАЗДАЧА! СКАЧАННОЕ НЕ ЗАСЧИТЫВАЕТСЯ! Золото
Дата: Зарегистрирован   [ Тип: внутренний ] Как тут cкачать?
MAGNET ссылка
MAGNET ссылка


Скачать .torrent

12 KB

Статус: проверено DHT
Скачан: торрент - 105 раз, раздача полностью - 0 раз
Размер: 2,31 GB
Оценка:  - (Голосов: 0)
Поблагодарили: 1
Поделиться ссылкой на эту раздачу с друзьями:
В контактеFacebookОдноклассникиTwitterLivejournalМой МирLiveinternet
 

 
Показать сообщения:    


Вы не можете начинать темы
Вы не можете отвечать на сообщения
Вы не можете редактировать свои сообщения
Вы не можете удалять свои сообщения
Вы не можете голосовать в опросах
Вы не можете прикреплять файлы к сообщениям
Вы можете скачивать файлы