Loading...
Error

Скачать Война обычного человека / Everyman's War (Тэд Смит) [2009, драма, военный, биография, HDRip] [MVO] торрент без регистрации

 
Статистика раздачи
Размер:  1,37 GB   |    Скачан:  157 раз
Сидов:  1  [  0 KB/s  ]  
 
Автор Сообщение

Marsianka

[] 

Информация о фильме
Название: Война обычного человека
Оригинальное название: Everyman's War
Год выхода: 2009
Жанр: драма, военный, биография
Режиссер: Тэд Смит
В ролях: Коул Карсон, Лорен Баир, Майкл Дж. Проссер, Шон МакГрат, Эрик Рейд, Брайан Джулиан, Стэйси Скейлс, Брэндон Смит, Мэри Энн Уорд

О фильме:
Независимая драма о настоящих героях, в основу которой положены реальные события, вошедшие в историю как «Битва за Выступ». В 1944 году после поражения немецких войск в Арденнах войска союзников вторглись в Западную Германию и безвозвратно перехватили стратегическую инициативу в этой войне. Зажав в руке письмо, извещающее о смерти давнего боевого товарища, Дон Смит погружается в воспоминания о том суровом времени, когда он вместе с другими солдатами 94-й пехотной дивизии замерзал в немецких снегах, согреваясь лишь мыслями о доме. Его изрядно поредевший отряд, практически без оружия, закрепился в окопах за пределами города. Никто в верховном командовании не ожидал, что немецкие войска начнут атаку при такой низкой температуре в надвигающейся снежной буре. Но американские солдаты стали свидетелями передислокации войск противника и быстро поняли, чем это грозит. Сержант Смит принял тяжелое решение: пробиться в город и предупредить о готовящемся нападении.



Страна: США
Студия: One-Eighty Films
Продолжительность: 01:44:47
Перевод: Профессиональный многоголосый

Файл
Кодек: XviD
Качество: HDRip
Видео: XviD, 1666 Кбит/с, 704x304
Звук: AC3, 2 ch, 192 Кбит/с

Семпл

Релиз от:

General
Complete name : Everymans.War.2009.XviD.HDRip.ExKinoRay.avi
Format : AVI
Format/Info : Audio Video Interleave
File size : 1.37 GiB
Duration : 1h 44mn
Overall bit rate : 1 867 Kbps
Writing application : VirtualDubMod 1.5.10.2 (build 2540/release)
Writing library : VirtualDubMod build 2540/release

Video
ID : 0
Format : MPEG-4 Visual
Format profile : Advanced Simple@L5
Format settings, BVOP : 1
Format settings, QPel : No
Format settings, GMC : No warppoints
Format settings, Matrix : Custom
Codec ID : XVID
Codec ID/Hint : XviD
Duration : 1h 44mn
Bit rate : 1 666 Kbps
Width : 704 pixels
Height : 304 pixels
Display aspect ratio : 2.35:1
Frame rate : 23.976 fps
Color space : YUV
Chroma subsampling : 4:2:0
Bit depth : 8 bits
Scan type : Progressive
Compression mode : Lossy
Bits/(Pixel*Frame) : 0.325
Stream size : 1.22 GiB (89%)
Writing library : XviD 1.2.1 (UTC 2008-12-04)

Audio
ID : 1
Format : AC-3
Format/Info : Audio Coding 3
Mode extension : CM (complete main)
Format settings, Endianness : Big
Codec ID : 2000
Duration : 1h 44mn
Bit rate mode : Constant
Bit rate : 192 Kbps
Channel(s) : 2 channels
Channel positions : Front: L R
Sampling rate : 48.0 KHz
Bit depth : 16 bits
Compression mode : Lossy
Stream size : 144 MiB (10%)
Alignment : Split accross interleaves
Interleave, duration : 42 ms (1.00 video frame)
Interleave, preload duration : 500 ms



Скачать Война.обычного.человека.Everyman's.War.(Тэд.Смит).[2009.драма.военный.биография.HDRip].[MVO].torrent без регистрации
Золото ЗОЛОТАЯ РАЗДАЧА! СКАЧАННОЕ НЕ ЗАСЧИТЫВАЕТСЯ! Золото
Дата: Зарегистрирован   [ Тип: внутренний ] Как тут cкачать?
MAGNET ссылка
MAGNET ссылка


Скачать .torrent

14 KB

Статус: проверено DHT
Скачан: торрент - 157 раз, раздача полностью - 52 раз
Размер: 1,37 GB
Оценка:  - (Голосов: 0)
Поблагодарили: 4
Поделиться ссылкой на эту раздачу с друзьями:
В контактеFacebookОдноклассникиTwitterLivejournalМой МирLiveinternet
 

 
Показать сообщения:    


Вы не можете начинать темы
Вы не можете отвечать на сообщения
Вы не можете редактировать свои сообщения
Вы не можете удалять свои сообщения
Вы не можете голосовать в опросах
Вы не можете прикреплять файлы к сообщениям
Вы можете скачивать файлы