Loading...
Error

Скачать Город Мечты / Волшебный город / Magic City (сезоны 01-02) (Саймон Селлан Джоунс и др.) [2012–2013, драмы, детективы, WEB-DL] [1080p] 2x[Dub] торрент без регистрации

 
Статистика раздачи
Размер:  33,23 GB   |    Скачан:  133 раза
Сидов:  1  [  0 KB/s  ]  
 
Автор Сообщение

МихаНЕзатор

[] 

Информация о фильме
Название: Город Мечты / Волшебный город
Оригинальное название: Magic City
Год выхода: 2012–2013
Жанр: драмы, детективы
Режиссер: Саймон Селлан Джоунс, Карл Франклин, Дэвид Петрарка, Эдвард Бьянчи, Ник Гомез

В ролях: Дэнни Хьюстон, Келли Линч, Джессика Маре, Доминик Гарсиа-Лоридо, Елена Сатине, Джеффри Дин Морган, Стивен Стрейт, Кристиан Кук, Мэтт Росс, Майкл Рисполи, Ольга Куриленко, Тейлор Миллер, Юл Васкес, Тейлор Блэкуэлл, Карен Гордон, Тодд Алан Даркин, Рики Во, Чад Галь, Ален Альварез, Джон Ченатьемпо

О фильме: Джеффри Дин Морган и Ольга Куриленко в красивом драматичном сериале, где плотно переплелись криминальные интриги Майами Бич и бушующие страсти революционной Кубы.
В центре внимания – роскошный отель «Мирамар», лучшее заведение побережья. Его управляющий, Айк Эванс, всегда находится в круговороте ярких, хоть и не всегда позитивных событий. Так, например, он готовится к приезду в отель легендарного Фрэнка Синатры, параллельно решая проблемы «Мирамара» с мафией и разруливая неурядицы, то и дело возникающие в его в собственной семье. Отель, которым управляет Айк, место неоднозначное: днем здесь проводятся выступления и занятия танцами, а ночью здесь можно встретить гангстеров, наркодилеров, проституток. И пока «Мирамар» живет своей двойной жизнью, всего в нескольких сотнях километров Фидель Кастро зазватывает кубинскую власть.



Страна: США
Продолжительность: 16 x 55 мин.
Перевод: Дублированный (Арк-ТВ по заказу Amedia)

Файл
Качество: WEBDL 1080p
Формат: MPEG-4
Видео кодек: AVC
Аудио кодек: AAC, AC3
Видео: MPEG4 Video (H264), 1920x1080, 25fps, 5096kbps
Аудио #1: AAC, 48Hz, stereo, 157kbps l Дубляж
Аудио #2: Dolby AC3, 48Hz, 5.1, 6ch, 448kbps l Дубляж

АНОНСЫ ПОПУЛЯРНЫХ РАЗДАЧ

Format : MPEG-4
Format profile : Base Media
Codec ID : isom
File size : 2.21 GiB
Duration : 55mn 31s
Overall bit rate : 5 706 Kbps
Writing application : Lavf55.33.100

Video
ID : 1
Format : AVC
Format/Info : Advanced Video Codec
Format profile : High@L4.0
Format settings, CABAC : Yes
Format settings, ReFrames : 3 frames
Codec ID : avc1
Codec ID/Info : Advanced Video Coding
Duration : 55mn 31s
Bit rate : 5 120 Kbps
Width : 1 920 pixels
Height : 1 080 pixels
Display aspect ratio : 16:9
Frame rate mode : Constant
Frame rate : 25.000 fps
Color space : YUV
Chroma subsampling : 4:2:0
Bit depth : 8 bits
Scan type : Progressive
Bits/(Pixel*Frame) : 0.099
Stream size : 1.98 GiB (89%)
Writing library : x264 core 142
Encoding settings : cabac=1 / ref=4 / deblock=1:0:0 / analyse=0x3:0x133 / me=hex / subme=7 / psy=1 / psy_rd=1.00:0.00 / mixed_ref=1 / me_range=16 / chroma_me=1 / trellis=2 / 8x8dct=1 / cqm=0 / deadzone=21,11 / fast_pskip=1 / chroma_qp_offset=-2 / threads=4 / lookahead_threads=1 / sliced_threads=0 / nr=0 / decimate=1 / interlaced=0 / bluray_compat=0 / constrained_intra=0 / bframes=6 / b_pyramid=1 / b_adapt=2 / b_bias=0 / direct=3 / weightb=1 / open_gop=0 / weightp=2 / keyint=100 / keyint_min=51 / scenecut=0 / intra_refresh=0 / rc_lookahead=50 / rc=2pass / mbtree=1 / bitrate=5120 / ratetol=1.0 / qcomp=0.60 / qpmin=0 / qpmax=69 / qpstep=4 / cplxblur=20.0 / qblur=0.5 / vbv_maxrate=6656 / vbv_bufsize=7680 / nal_hrd=none / filler=0 / ip_ratio=1.40 / aq=1:1.00
Language : English
Tagged date : UTC 2014-10-10 17:23:52

Audio #1
ID : 2
Format : AAC
Format/Info : Advanced Audio Codec
Format profile : LC
Codec ID : 40
Duration : 55mn 31s
Duration_LastFrame : 43ms
Bit rate mode : Constant
Bit rate : 158 Kbps
Channel(s) : 2 channels
Channel positions : Front: L R
Sampling rate : 48.0 KHz
Compression mode : Lossy
Stream size : 62.7 MiB (3%)
Language : English
Tagged date : UTC 2014-10-10 17:23:52

Audio #2
ID : 3
Format : AC-3
Format/Info : Audio Coding 3
Mode extension : CM (complete main)
Format settings, Endianness : Big
Codec ID : ac-3
Duration : 55mn 31s
Bit rate mode : Constant
Bit rate : 448 Kbps
Channel(s) : 6 channels
Channel positions : Front: L C R, Side: L R, LFE
Sampling rate : 48.0 KHz
Bit depth : 16 bits
Compression mode : Lossy
Stream size : 178 MiB (8%)
Language : English
Tagged date : UTC 2014-10-10 17:23:52



Скачать Город.Мечты.Волшебный.город.Magic.City.(сезоны.01-02).(Саймон.Селлан.Джоунс.и.др.).[2012–2013.драмы.детективы.WEB-DL].[1080p].2x[Dub].torrent без регистрации
Золото ЗОЛОТАЯ РАЗДАЧА! СКАЧАННОЕ НЕ ЗАСЧИТЫВАЕТСЯ! Золото
Дата: Зарегистрирован   [ Тип: внутренний ] Как тут cкачать?
MAGNET ссылка
MAGNET ссылка


Скачать .torrent

85 KB

Статус: проверено DHT
Скачан: торрент - 133 раз, раздача полностью - 16 раз
Размер: 33,23 GB
Оценка:  - (Голосов: 0)
Поблагодарили: 1
Поделиться ссылкой на эту раздачу с друзьями:
В контактеFacebookОдноклассникиTwitterLivejournalМой МирLiveinternet
 

 
Показать сообщения:    


Вы не можете начинать темы
Вы не можете отвечать на сообщения
Вы не можете редактировать свои сообщения
Вы не можете удалять свои сообщения
Вы не можете голосовать в опросах
Вы не можете прикреплять файлы к сообщениям
Вы можете скачивать файлы