Loading...
Error

Скачать Гранчестер / Grantchester (сезон 01) [2014, драма, детектив, HDTV] [720p] [DVO VictoryFilms] торрент без регистрации

 
Статистика раздачи
Размер:  4,94 GB   |    Скачан:  128 раз
Сидов:  14  [  0 KB/s  ]  
 
Автор Сообщение

МихаНЕзатор

[] 

Информация о фильме
Название: Гранчестер
Оригинальное название: Grantchester
Год выхода: 2014
Жанр: драма, детектив
Режиссер: Гарри Брэдбир, Джилл Робертсон, Тим Файвелл

В ролях: Джеймс Нортон, Робсон Грин, Морвен Кристи, Тесса Пик-Джонс, Аль Уивер, Том Остин, Грегг Лоу, Фелина Рогган, Кейси Эйнсуорт, Крис Бирн

О фильме: Действие происходит в 1953 году в живописной деревушке Гранчестер в Кембриджшире. Главный герой — Сидни Чемберс, харизматичный и очаровательный викарий, который начинает собственное расследование, когда один из его прихожан умирает при подозрительных обстоятельствах.



Страна: Великобритания
Студия: Loveday, Masterpiece co-production
Продолжительность: ~45 минут серия
Перевод: Любительский (двухголосый закадровый) [VictoryFilms]

Файл
Кодек: h.264 / AC3
Качество: HDTVRip 720p
Видео: AVC, 1280x720 (16:9), 25.000 fps, 2 600 Kbps (0.113 bit/pixel)
Звук: AC-3, 48.0 KHz, 2 ch, 224 Kbps, CBR

АНОНСЫ ПОПУЛЯРНЫХ РАЗДАЧ
General
Unique ID : 294295477257102188363002810829020896508 (0xDD673F4976BB69BC4A06F0AF479C9CFC)
Complete name : Гранчестер Grantchester 2014 (720) Victory-Filmsgrantchester.1x01.720p-Victory-Films.mkv
Format : Matroska
Format version : Version 2
File size : 929 MiB
Duration : 45mn 55s
Overall bit rate : 2 827 Kbps
Encoded date : UTC 2014-10-12 22:08:33
Writing application : Lavf54.63.104
Writing library : Lavf54.63.104

Video
ID : 1
Format : AVC
Format/Info : Advanced Video Codec
Format profile : Main@L3.1
Format settings, CABAC : Yes
Format settings, ReFrames : 1 frame
Codec ID : V_MPEG4/ISO/AVC
Duration : 45mn 55s
Bit rate : 2 600 Kbps
Width : 1 280 pixels
Height : 720 pixels
Display aspect ratio : 16:9
Frame rate mode : Constant
Frame rate : 25.000 fps
Color space : YUV
Chroma subsampling : 4:2:0
Bit depth : 8 bits
Scan type : Progressive
Bits/(Pixel*Frame) : 0.113
Stream size : 837 MiB (90%)
Writing library : x264 core 129
Encoding settings : cabac=1 / ref=1 / deblock=1:0:0 / analyse=0x1:0x131 / me=dia / subme=2 / psy=1 / psy_rd=1.00:0.00 / mixed_ref=0 / me_range=16 / chroma_me=1 / trellis=0 / 8x8dct=0 / cqm=0 / deadzone=21,11 / fast_pskip=1 / chroma_qp_offset=0 / threads=8 / lookahead_threads=1 / sliced_threads=0 / nr=0 / decimate=1 / interlaced=0 / bluray_compat=0 / constrained_intra=0 / bframes=0 / weightp=2 / keyint=250 / keyint_min=25 / scenecut=40 / intra_refresh=0 / rc_lookahead=40 / rc=abr / mbtree=1 / bitrate=2600 / ratetol=1.0 / qcomp=0.60 / qpmin=10 / qpmax=51 / qpstep=4 / ip_ratio=1.41 / aq=1:1.00
Default : Yes
Forced : No

Audio
ID : 2
Format : AC-3
Format/Info : Audio Coding 3
Mode extension : CM (complete main)
Format settings, Endianness : Big
Codec ID : A_AC3
Duration : 45mn 55s
Bit rate mode : Constant
Bit rate : 224 Kbps
Channel(s) : 2 channels
Channel positions : Front: L R
Sampling rate : 48.0 KHz
Bit depth : 16 bits
Compression mode : Lossy
Stream size : 73.6 MiB (8%)
Default : Yes
Forced : No



Скачать Гранчестер.Grantchester.(сезон.01).[2014.драма.детектив.HDTV].[720p].[DVO.VictoryFilms].torrent без регистрации
Золото ЗОЛОТАЯ РАЗДАЧА! СКАЧАННОЕ НЕ ЗАСЧИТЫВАЕТСЯ! Золото
Дата: Зарегистрирован   [ Тип: внешний ] Как тут cкачать?
MAGNET ссылка
MAGNET ссылка


Скачать .torrent

27 KB

Статус: проверено DHT
Скачан: торрент - 128 раз, раздача полностью - 44 раз
Размер: 4,94 GB
Оценка:  - (Голосов: 0)
Поблагодарили: 2
Поделиться ссылкой на эту раздачу с друзьями:
В контактеFacebookОдноклассникиTwitterLivejournalМой МирLiveinternet
 

 
Показать сообщения:    


Вы не можете начинать темы
Вы не можете отвечать на сообщения
Вы не можете редактировать свои сообщения
Вы не можете удалять свои сообщения
Вы не можете голосовать в опросах
Вы не можете прикреплять файлы к сообщениям
Вы можете скачивать файлы