Loading...
Error

Скачать Подручный Хадсакера / The Hudsucker Proxy (Джоэл Коэн, Итан Коэн) [1994, комедия, фэнтези, драма, BDRip-AVC] [MVO]x2+[DVO]x2+[AVO]x3+[Sub]x2 торрент без регистрации

 
Статистика раздачи
Размер:  3,45 GB   |    Скачан:  123 раза
Сидов:  1  [  0 KB/s  ]  
 
Автор Сообщение

Marsianka

[] 

Информация о фильме
Название: Подручный Хадсакера
Оригинальное название: The Hudsucker Proxy
Год выхода: 1994
Жанр: комедия, фэнтези, драма
Режиссер: Джоэл Коэн, Итан Коэн
В ролях: Тим Роббинс, Дженнифер Джейсон Ли, Пол Ньюман, Чарльз Дёрнинг, Джон Махони, Джим Тру-Фрост, Билл Коббс, Брюс Кэмпбелл, Гарри Бьюджин, Джон Сайц, Джо Грифази, Рой Броксмит, Джон Вайли, И.М. Хобсон, Гари Аллен, Джон Скэнлэн, Ричард Вуд, Джером Демпси, Питер МакФерсон, Дэвид Бирд, Кристофер Дарга, Патрик Крэншо, Роберт Уайл, Мэри Лу Розато, Эрнест Саррасино, Элинор Глокнер, Кэтлин Перкинс, Джозеф Маркус, Питер Галлахер, Ноубл Уиллингэм, Барбара Энн Граймс, Том Ноубл, Стив Бушеми

О фильме: Безработный паренек из провинции оказывается в самом центре Америки — Нью-Йорке, в поисках работы. Благодаря счастливому стечению обстоятельств, его зачисляют в число клерков одной из крупнейших компаний. С этого момента новоиспеченному клерку начинает везти. В результате чиновничьих интриг парень из провинции оказывается председателем компании, и этот поворот судьбы резко меняет его жизнь. Но слава и деньги, о которых когда-то мечтал герой, могут не только возвеличить, но и порядком испортить ему жизнь.



Страна: Великобритания, Германия, США
Студия: PolyGram Filmed Entertainment, PolyGram Filmproduktion, Silver Pictures, Warner Bros. Pictures, Working Title Films
Продолжительность: 01:50:45
Перевод: Профессиональный многоголосый, профессиональный двухголосый, авторский одноголосый

Файл
Кодек: MPEG-4 AVC
Качество: BDRip-AVC
Видео: 1900 Кбит/с, 1024х576, 23.976 кадр/с

Семпл
Аудио #1: Русский (AC3, 2 ch, 192 Кбит/с) / Профессиональный многоголосый (Первый канал)
Аудио #2: Русский (AC3, 5 ch, 384 Кбит/с) / Профессиональный многоголосый (DVD Group)
Аудио #3: Русский (AC3, 6 ch, 448 Кбит/с) / Профессиональный двухголосый (R5)
Аудио #4: Русский (AC3, 2 ch, 192 Кбит/с) / Профессиональный двухголосый (R5 UPR)
Аудио #5: Русский (AC3, 6 ch, 448 Кбит/с) / Авторский одноголосый (В. Горчаков)
Аудио #6: Русский (AC3, 6 ch, 448 Кбит/с) / Авторский одноголосый (Ю. Живов)
Аудио #7: Русский (AC3, 2 ch, 192 Кбит/с) / Авторский одноголосый (А. Пронин)
Аудио #8: Английский (AC3, 2 ch, 256 Кбит/с)
Субтитры: Русские, английские
Общее
Уникальный идентификатор : 225298813450684855486344690712751042404 (0xA97EF91EC867CF3DA2E61CE60F1EEF64)
Полное имя : H:1FilmsHРелизыPodruchnyj.Hadsakera.1994.x264.BDRip.AVC.MediaClub.mkv
Формат : Matroska
Версия формата : Version 4 / Version 2
Размер файла : 3,45 Гбайт
Продолжительность : 1 ч. 50 м.
Общий поток : 4462 Кбит/сек
Название фильма : -= MediaClub =- rip by Lefevr
Дата кодирования : UTC 2014-11-12 17:47:12
Программа кодирования : mkvmerge v6.1.0 ('Old Devil') built on Mar 4 2013 09:10:42
Библиотека кодирования : libebml v1.3.0 + libmatroska v1.4.0

Видео
Идентификатор : 1
Формат : AVC
Формат/Информация : Advanced Video Codec
Профиль формата : High@L4.1
Параметр CABAC формата : Да
Параметр ReFrames формата : 9 кадров
Идентификатор кодека : V_MPEG4/ISO/AVC
Продолжительность : 1 ч. 50 м.
Битрейт : 1900 Кбит/сек
Ширина : 1024 пикселя
Высота : 576 пикселей
Соотношение сторон : 16:9
Режим частоты кадров : Постоянный
Частота кадров : 23,976 кадра/сек
Цветовое пространство : YUV
Субдискретизация насыщенности : 4:2:0
Битовая глубина : 8 бит
Тип развёртки : Прогрессивная
Бит/(Пиксели*Кадры) : 0.134
Размер потока : 1,40 Гбайт (41%)
Заголовок : Podruchnyj.Hadsakera.1994.x264.BDRip.AVC.MediaClub
Библиотека кодирования : x264 core 130 r2273 b3065e6
Настройки программы : cabac=1 / ref=9 / deblock=1:-2:-2 / analyse=0x3:0x133 / me=umh / subme=11 / psy=1 / psy_rd=1.00:0.20 / mixed_ref=1 / me_range=32 / chroma_me=1 / trellis=2 / 8x8dct=1 / cqm=0 / deadzone=21,11 / fast_pskip=0 / chroma_qp_offset=-3 / threads=6 / lookahead_threads=1 / sliced_threads=0 / nr=0 / decimate=0 / interlaced=0 / bluray_compat=0 / constrained_intra=0 / bframes=8 / b_pyramid=2 / b_adapt=2 / b_bias=0 / direct=3 / weightb=1 / open_gop=0 / weightp=2 / keyint=240 / keyint_min=23 / scenecut=40 / intra_refresh=0 / rc=2pass / mbtree=0 / bitrate=1900 / ratetol=1.0 / qcomp=0.60 / qpmin=0 / qpmax=69 / qpstep=4 / cplxblur=20.0 / qblur=0.5 / ip_ratio=1.40 / pb_ratio=1.30 / aq=1:1.00
Язык : English
Default : Да
Forced : Да

Аудио #1
Идентификатор : 2
Формат : AC-3
Формат/Информация : Audio Coding 3
Расширение режима : CM (complete main)
Параметр Endianness формата : Big
Идентификатор кодека : A_AC3
Продолжительность : 1 ч. 50 м.
Вид битрейта : Постоянный
Битрейт : 192 Кбит/сек
Каналы : 2 канала
Расположение каналов : Front: L R
Частота : 48,0 КГц
Битовая глубина : 16 бит
Метод сжатия : С потерями
Размер потока : 152 Мбайт (4%)
Заголовок : TRACK_01_MVO_RUS_1ch
Язык : Russian
Default : Да
Forced : Да

Аудио #2
Идентификатор : 3
Формат : AC-3
Формат/Информация : Audio Coding 3
Расширение режима : CM (complete main)
Параметр Endianness формата : Big
Идентификатор кодека : A_AC3
Продолжительность : 1 ч. 50 м.
Вид битрейта : Постоянный
Битрейт : 384 Кбит/сек
Каналы : 5 каналов
Расположение каналов : Front: L C R, Side: L R
Частота : 48,0 КГц
Битовая глубина : 16 бит
Метод сжатия : С потерями
Размер потока : 304 Мбайт (9%)
Заголовок : TRACK_02_MVO_RUS_DVDGroup
Язык : Russian
Default : Нет
Forced : Нет

Аудио #3
Идентификатор : 4
Формат : AC-3
Формат/Информация : Audio Coding 3
Расширение режима : CM (complete main)
Параметр Endianness формата : Big
Идентификатор кодека : A_AC3
Продолжительность : 1 ч. 50 м.
Вид битрейта : Постоянный
Битрейт : 448 Кбит/сек
Каналы : 6 каналов
Расположение каналов : Front: L C R, Side: L R, LFE
Частота : 48,0 КГц
Битовая глубина : 16 бит
Метод сжатия : С потерями
Размер потока : 355 Мбайт (10%)
Заголовок : TRACK_03_DVO_RUS_R5
Язык : Russian
Default : Нет
Forced : Нет

Аудио #4
Идентификатор : 5
Формат : AC-3
Формат/Информация : Audio Coding 3
Расширение режима : CM (complete main)
Параметр Endianness формата : Big
Идентификатор кодека : A_AC3
Продолжительность : 1 ч. 50 м.
Вид битрейта : Постоянный
Битрейт : 192 Кбит/сек
Каналы : 2 канала
Расположение каналов : Front: L R
Частота : 48,0 КГц
Битовая глубина : 16 бит
Метод сжатия : С потерями
Размер потока : 152 Мбайт (4%)
Заголовок : TRACK_04_DVO_RUS_R5_UPR
Язык : Russian
Default : Нет
Forced : Нет

Аудио #5
Идентификатор : 6
Формат : AC-3
Формат/Информация : Audio Coding 3
Расширение режима : CM (complete main)
Параметр Endianness формата : Big
Идентификатор кодека : A_AC3
Продолжительность : 1 ч. 50 м.
Вид битрейта : Постоянный
Битрейт : 448 Кбит/сек
Каналы : 6 каналов
Расположение каналов : Front: L C R, Side: L R, LFE
Частота : 48,0 КГц
Битовая глубина : 16 бит
Метод сжатия : С потерями
Размер потока : 355 Мбайт (10%)
Заголовок : TRACK_05_AVO_RUS_Gorchakov
Язык : Russian
Default : Нет
Forced : Нет

Аудио #6
Идентификатор : 7
Формат : AC-3
Формат/Информация : Audio Coding 3
Расширение режима : CM (complete main)
Параметр Endianness формата : Big
Идентификатор кодека : A_AC3
Продолжительность : 1 ч. 50 м.
Вид битрейта : Постоянный
Битрейт : 448 Кбит/сек
Каналы : 6 каналов
Расположение каналов : Front: L C R, Side: L R, LFE
Частота : 48,0 КГц
Битовая глубина : 16 бит
Метод сжатия : С потерями
Размер потока : 355 Мбайт (10%)
Заголовок : TRACK_06_AVO_RUS_Zhivov
Язык : Russian
Default : Нет
Forced : Нет

Аудио #7
Идентификатор : 8
Формат : AC-3
Формат/Информация : Audio Coding 3
Расширение режима : CM (complete main)
Параметр Endianness формата : Big
Идентификатор кодека : A_AC3
Продолжительность : 1 ч. 50 м.
Вид битрейта : Постоянный
Битрейт : 192 Кбит/сек
Каналы : 2 канала
Расположение каналов : Front: L R
Частота : 48,0 КГц
Битовая глубина : 16 бит
Метод сжатия : С потерями
Размер потока : 152 Мбайт (4%)
Заголовок : TRACK_07_AVO_RUS_Pronin
Язык : Russian
Default : Нет
Forced : Нет

Аудио #8
Идентификатор : 9
Формат : AC-3
Формат/Информация : Audio Coding 3
Расширение режима : CM (complete main)
Параметр Endianness формата : Big
Идентификатор кодека : A_AC3
Продолжительность : 1 ч. 50 м.
Вид битрейта : Постоянный
Битрейт : 256 Кбит/сек
Каналы : 2 канала
Расположение каналов : Front: L R
Частота : 48,0 КГц
Битовая глубина : 16 бит
Метод сжатия : С потерями
Размер потока : 203 Мбайт (6%)
Заголовок : TRACK_08_ORIGINAL_ENG
Язык : English
Default : Нет
Forced : Нет

Текст #1
Идентификатор : 10
Формат : UTF-8
Идентификатор кодека : S_TEXT/UTF8
Идентификатор кодека/Информация : UTF-8 Plain Text
Заголовок : TEXT_01_SUB_RUS.srt
Язык : Russian
Default : Нет
Forced : Нет

Текст #2
Идентификатор : 11
Формат : UTF-8
Идентификатор кодека : S_TEXT/UTF8
Идентификатор кодека/Информация : UTF-8 Plain Text
Заголовок : TEXT_02_SUB_ENG.srt
Язык : English
Default : Нет
Forced : Нет

Меню
00:00:00.000 : en:Out of Hope, Rope and Time
00:03:44.307 : en:The Job Market
00:05:25.491 : en:High Noon for Hudsucker
00:09:50.256 : en:Wanted: Some Jerk
00:13:05.451 : en:Mailroom Orientation
00:14:11.559 : en:Norville's Ticket Upstairs
00:16:18.686 : en:Blue Letter Alert
00:17:45.522 : en:Buss Does What He Does
00:19:00.848 : en:Enter a Grade-a Ding-Dong
00:24:36.183 : en:All Fired Up
00:25:55.428 : en:Mussberger By His Pants
00:27:23.933 : en:A Good Laugh
00:28:58.027 : en:What Makes the Idea Man Tick?
00:32:59.644 : en:Enter the Dame
00:35:02.892 : en:A Muncie Girl
00:39:01.172 : en:"The Guy's A Real Moron."
00:40:53.701 : en:A Letter to Amy Archer
00:44:50.396 : en:The Wisdom of Moses
00:49:45.816 : en:Mannish Moment
00:50:57.304 : en:Meet the Stockholders
00:53:38.757 : en:Vic Tenetta ("Memories Are Made of This")
00:54:34.604 : en:Touching Horns on the Balcony
00:59:50.420 : en:Norville's Dingus
01:01:44.951 : en:The Hula Hoop Is Born
01:04:38.583 : en:Jumping Through Hoops
01:07:50.024 : en:Lotsa Hoopla
01:12:00.190 : en:Getting Off This Merry-Go-Round
01:14:09.153 : en:Formerly a Swell Guy
01:16:56.737 : en:Light on His Feet
01:18:09.518 : en:Thumbs Down on the Buzzsucker
01:20:44.548 : en:Long Way Down
01:25:23.827 : en:He's Nuts
01:26:54.959 : en:The Quitter
01:33:50.875 : en:Taking the Plunge
01:37:13.452 : en:Second Chance with Wings
01:43:59.066 : en:Epilogue
01:46:02.064 : en:End Credits

...last pass...

x264.exe: --pass 2 --bitrate 1900 --preset veryslow --profile high --level 4.1 --ref 9 --deblock -2:-2 --merange 32 --no-fast-pskip --no-dct-decimate --psy-rd 1.00:0.20 --subme 11 --no-mbtree --keyint 240 --sar 1:1 --stats "E:1Films EРелизыThe Hudsucker Proxy11111.log" --output "E:1Films EРелизыThe Hudsucker Proxy11111.mkv" "F:Temp028.avs"

avs [info]: 1024x576p 1:1 @ 2500000/104271 fps (cfr)
x264 [info]: using SAR=1/1
x264 [info]: using cpu capabilities: MMX2 SSE2Fast SSSE3 SSE4.2 AVX
x264 [info]: profile High, level 4.1

x264 [info]: frame I:1174 Avg QP:16.15 size: 68658
x264 [info]: frame P:34290 Avg QP:18.89 size: 20037
x264 [info]: frame B:123847 Avg QP:20.47 size: 6538
x264 [info]: consecutive B-frames: 1.9% 2.4% 8.2% 18.7% 18.7% 41.6% 4.7% 1.6% 2.4%
x264 [info]: mb I I16..4: 14.7% 67.0% 18.3%
x264 [info]: mb P I16..4: 1.6% 11.1% 1.5% P16..4: 35.4% 35.0% 8.7% 1.1% 0.1% skip: 5.5%
x264 [info]: mb B I16..4: 0.2% 1.0% 0.1% B16..8: 36.8% 17.3% 2.1% direct: 5.1% skip:37.5% L0:45.0% L1:46.0% BI: 9.0%
x264 [info]: 8x8 transform intra:75.7% inter:57.1%
x264 [info]: direct mvs spatial:98.3% temporal:1.7%
x264 [info]: coded y,uvDC,uvAC intra: 82.0% 66.6% 36.8% inter: 17.8% 18.2% 4.0%
x264 [info]: i16 v,h,dc,p: 30% 16% 14% 40%
x264 [info]: i8 v,h,dc,ddl,ddr,vr,hd,vl,hu: 9% 7% 10% 9% 13% 13% 12% 12% 13%
x264 [info]: i4 v,h,dc,ddl,ddr,vr,hd,vl,hu: 14% 9% 8% 8% 13% 13% 12% 11% 12%
x264 [info]: i8c dc,h,v,p: 33% 34% 20% 12%
x264 [info]: Weighted P-Frames: Y:7.5% UV:3.5%
x264 [info]: ref P L0: 42.1% 8.2% 20.3% 7.6% 6.9% 4.7% 4.6% 2.5% 2.7% 0.4% 0.0%
x264 [info]: ref B L0: 68.0% 13.5% 7.1% 4.0% 2.9% 2.5% 1.4% 0.6%
x264 [info]: ref B L1: 91.6% 8.4%
x264 [info]: kb/s:1899.12
Релиз от: | Автор рипа:



Скачать Подручный.Хадсакера.The.Hudsucker.Proxy.(Джоэл.Коэн.Итан.Коэн).[1994.комедия.фэнтези.драма.BDRip-AVC].[MVO]x2+[DVO]x2+[AVO]x3+[Sub]x2.torrent без регистрации
Золото ЗОЛОТАЯ РАЗДАЧА! СКАЧАННОЕ НЕ ЗАСЧИТЫВАЕТСЯ! Золото
Дата: Зарегистрирован   [ Тип: внутренний ] Как тут cкачать?
MAGNET ссылка
MAGNET ссылка


Скачать .torrent

18 KB

Статус: проверено DHT
Скачан: торрент - 123 раз, раздача полностью - 5 раз
Размер: 3,45 GB
Оценка:  - (Голосов: 0)
Поблагодарили: 1
Поделиться ссылкой на эту раздачу с друзьями:
В контактеFacebookОдноклассникиTwitterLivejournalМой МирLiveinternet
 

 
Показать сообщения:    


Вы не можете начинать темы
Вы не можете отвечать на сообщения
Вы не можете редактировать свои сообщения
Вы не можете удалять свои сообщения
Вы не можете голосовать в опросах
Вы не можете прикреплять файлы к сообщениям
Вы можете скачивать файлы