Loading...
Error

Скачать Дневники вампира / The Vampire Diaries (сезон 6) (Маркос Сига и др.) [2014, ужасы, фэнтези, драма, WEB-DL] [720p] [MVO (LostFilm)]+[DVO (Кубик в Кубе)]+[Original]+[Subs (rus+eng)] торрент без регистрации

 
Статистика раздачи
Размер:  33,82 GB   |    Скачан:  510 раз
Сидов:  1  [  0 KB/s  ]  
 
Автор Сообщение

МихаНЕзатор

[] 



Дневники вампира / The Vampire Diaries


Год выпуска: 2014
Страна: США
Жанр: ужасы, фэнтези, драма
Продолжительность: ~ 00:43:00
Перевод: Профессиональный (многоголосый закадровый) LostFilm
Перевод 2: Профессиональный (двухголосый закадровый) Кубик в Кубе
Режиссёр: Маркос Сига, Роб Харди, Дэвид Фон Энкен, Дж. Миллер Тобин

В ролях: Нина Добрев, Пол Уэсли, Иэн Сомерхолдер, Стивен Р. МакКуин, Катерина Грэхэм, Кэндис Аккола, Зак Рериг, Майкл Тревино, Джозеф Морган, Сара Каннинг, Кайла Юэлл, Дэвид Андерс, Клер Холт, Тейлор Кинни, Келли Ху, Роберт Пралго, Брайтон МакКлур и др.

Описание: Мистик Фоллс все еще защищен от любой магии, люди в нем наслаждаются безопасной и беззаботной жизнью. Однако сила заклятья не распространяется на леса, окружающие город. Там, наивных туристов, может ждать встреча со всеми жуткими сверхъестественными существами, которые больше не могут проникнуть в город. Елена не способна смириться и жить дальше без возлюбленного Деймона. Потому она вынуждает ведьм давать ей зелье, которое позволяет ей видеть его призрак. Также девушка стала нападать на людей и пить их кровь, и это все очень беспокоит Кэролайн. Стефан решил жить дальше и изменил многое. Он покинул Мистик Фоллс и живет в другом городе, подальше от старых бед, там он нашел себе новую профессию и новую девушку. Новым врагом для наших героев в сериале "Дневники Вампира" стане человек по имени Трип, он руководит отрядом ополченцев и всерьез намерен сместить действующего шерифа Форбс с ее должности, поскольку она потакала сверхъестественным существам.
Доп. информация:
Релиз:
Работа со звуком LostFilm: серии 1-3 marchelush, 4-8 skyns61
Работа со звуком Кубик в Кубе: Tyance



Качество: WEB-DL 720p
Контейнер: MKV
Видео: AVC, 1280x718 (1.783), 23.976 fps, ~4000 kbps, 0.181 бит/пиксели
Аудио rus: 48 kHz, AC3, 3/2 (L,C,R,l,r) + LFE ch, ~384.00 kbps | LostFilm
Аудио rus: 48 kHz, AC3, 3/2 (L,C,R,l,r) + LFE ch, ~384.00 kbps | Кубик в Кубе
Аудио eng: 48 kHz, AC3, 3/2 (L,C,R,l,r) + LFE ch, ~384.00 kbps
Субтитры: Russian (Мекс), English

АНОНСЫ ПОПУЛЯРНЫХ РАЗДАЧ


Торрент обновлён, добавлена 22-я серия!

01. Я буду помнить /I'll Remember
02. Извещение о смерти / Yellow Ledbetter
03. Добро пожаловать в рай /Welcome to Paradise
04. Солнечное затмение /Black Hole Sun
05. Мир изменился, а я остался прежним /The World Has Turned and Left Me Here
06. Чем больше ты отворачиваешься, тем ближе я подбираюсь /The More You Ignore Me, the Closer I Get
07. Помнишь нашу первую встречу? /Do You Remember the First Time?
08. Слиться с тобой /Fade Into You
09. Я одна /I Alone
10. Рождество твоими глазами /Christmas Through Your Eyes
11. Проснулась с чудовищем /Woke Up with a Monster
12. Отходная молитва /Prayer for the Dying
13. В тот день я попыталась жить /The Day I Tried to Live
14. Останься /Stay
15. Отпусти её /Let Her Go
16. Порочный круг /The Downward Spiral
17. Птичка в позолоченной клетке /A Bird in a Gilded Cage
18. Я не могла бы так любить /I Could Never Love Like That
19. Потому что /Because
20. Ради тебя я оставлю счастливый свой дом /I'd Leave My Happy Home for You
21. Я выйду за тебя посреди золотистого лета /I'll Wed You in the Golden Summertime
22. Мне никогда вас не забыть /I'm Thinking of You All the While
Общее
Уникальный идентификатор : 231632939287534298859311455589675726678 (0xAE42E1A2A558E421B3B506ABEABA7756)
Полное имя : G:\Films\The.Vampire.Diaries.S06.720p.HDCLUB\The.Vampire.Diaries.S06E01.720p.WEB-DL.2xRus.Eng.Subs-HDCLUB.mkv
Формат : Matroska
Версия формата : Version 4 / Version 2
Размер файла : 1,56 Гбайт
Продолжительность : 42 м.
Общий поток : 5240 Кбит/сек
Название фильма : The Vampire Diaries - 06x01 - Release for HDCLUB -
Дата кодирования : UTC 2014-10-04 20:18:11
Программа кодирования : mkvmerge v7.0.0 ('Where We Going') 64bit built on Jun 9 2014 15:16:27
Библиотека кодирования : libebml v1.3.0 + libmatroska v1.4.1
DURATION : 00:42:03.378000000
NUMBER_OF_FRAMES : 730
NUMBER_OF_BYTES : 41647
_STATISTICS_WRITING_APP : mkvmerge v7.0.0 ('Where We Going') 64bit built on Jun 9 2014 15:16:27
_STATISTICS_WRITING_DATE_UTC : 2014-10-04 20:18:11
_STATISTICS_TAGS : BPS DURATION NUMBER_OF_FRAMES NUMBER_OF_BYTES
Видео
Идентификатор : 1
Формат : AVC
Формат/Информация : Advanced Video Codec
Профиль формата : High@L3.1
Параметр CABAC формата : Нет
Параметр ReFrames формата : 2 кадра
Идентификатор кодека : V_MPEG4/ISO/AVC
Продолжительность : 42 м.
Битрейт : 3984 Кбит/сек
Ширина : 1280 пикселей
Высота : 718 пикселей
Соотношение сторон : 16:9
Режим частоты кадров : Постоянный
Частота кадров : 23,976 кадра/сек
Цветовое пространство : YUV
Субдискретизация насыщенности : 4:2:0
Битовая глубина : 8 бит
Тип развёртки : Прогрессивная
Бит/(Пиксели*Кадры) : 0.181
Размер потока : 1,18 Гбайт (76%)
Заголовок : The Vampire Diaries - 06x01 - Release for HDCLUB -
Язык : English
Default : Да
Forced : Нет
Основные цвета : BT.709
Характеристики трансфера : BT.709
Коэффициенты матрицы : BT.709
Аудио #1
Идентификатор : 2
Формат : AC-3
Формат/Информация : Audio Coding 3
Расширение режима : CM (complete main)
Параметр Endianness формата : Big
Идентификатор кодека : A_AC3
Продолжительность : 42 м.
Вид битрейта : Постоянный
Битрейт : 384 Кбит/сек
Каналы : 6 каналов
Расположение каналов : Front: L C R, Side: L R, LFE
Частота : 48,0 КГц
Битовая глубина : 16 бит
Метод сжатия : С потерями
Размер потока : 117 Мбайт (7%)
Заголовок : LostFilm
Язык : Russian
Default : Да
Forced : Нет
Аудио #2
Идентификатор : 3
Формат : AC-3
Формат/Информация : Audio Coding 3
Расширение режима : CM (complete main)
Параметр Endianness формата : Big
Идентификатор кодека : A_AC3
Продолжительность : 42 м.
Вид битрейта : Постоянный
Битрейт : 384 Кбит/сек
Каналы : 6 каналов
Расположение каналов : Front: L C R, Side: L R, LFE
Частота : 48,0 КГц
Битовая глубина : 16 бит
Метод сжатия : С потерями
Размер потока : 117 Мбайт (7%)
Заголовок : Кубик в Кубе
Язык : Russian
Default : Нет
Forced : Нет
Аудио #3
Идентификатор : 4
Формат : AC-3
Формат/Информация : Audio Coding 3
Расширение режима : CM (complete main)
Параметр Endianness формата : Big
Идентификатор кодека : A_AC3
Продолжительность : 42 м.
Вид битрейта : Постоянный
Битрейт : 384 Кбит/сек
Каналы : 6 каналов
Расположение каналов : Front: L C R, Side: L R, LFE
Частота : 48,0 КГц
Битовая глубина : 16 бит
Метод сжатия : С потерями
Размер потока : 117 Мбайт (7%)
Язык : English
Default : Нет
Forced : Нет
Текст #1
Идентификатор : 5
Формат : UTF-8
Идентификатор кодека : S_TEXT/UTF8
Идентификатор кодека/Информация : UTF-8 Plain Text
Заголовок : Мекс
Язык : Russian
Default : Нет
Forced : Нет
Текст #2
Идентификатор : 6
Формат : UTF-8
Идентификатор кодека : S_TEXT/UTF8
Идентификатор кодека/Информация : UTF-8 Plain Text
Язык : English
Default : Нет
Forced : Нет
Внимание! Раздача ведётся путём добавления новых серий; при каждом добавлении создаётся новый торрент. Чтобы начать докачку новой серии, пользователям необходимо сделать следующее:
Остановить скачивание.
Удалить старый торрент у себя из клиента (старые серии удалять не надо).
Скачать новый торрент и запустить его у себя в клиенте вместо старого, при этом указать клиенту путь в старую папку куда и должно происходить скачивание новых серий.
Ваш клиент при этом должен произвести хеширование (проверку) старой папки (если не производит сам - помогите ему сделать это), и будет докачивать только те серии которых у вас ещё нет. Старые серии при этом не удаляются, а продолжают раздаваться!
Eсли вы уже удалили старые серии, то предотвратить повторную закачку старых серий можно, отжав галочку в соответсвующих местах при запуске нового торрента. По возможности, желательно не удалять старые серии как можно дольше чтобы релизёр не столько продолжал раздавать старые серии, а смог сконцентрироваться на новых.



Скачать Дневники.вампира.The.Vampire.Diaries.(сезон.6).(Маркос.Сига.и.др.).[2014.ужасы.фэнтези.драма.WEB-DL].[720p].[MVO.(LostFilm)]+[DVO.(Кубик.в.Кубе)]+[Original]+[Subs.(rus+eng)].torrent без регистрации
Золото ЗОЛОТАЯ РАЗДАЧА! СКАЧАННОЕ НЕ ЗАСЧИТЫВАЕТСЯ! Золото
Дата: Зарегистрирован   [ Тип: внутренний ] Как тут cкачать?
MAGNET ссылка
MAGNET ссылка


Скачать .torrent

87 KB

Статус: проверено DHT
Скачан: торрент - 510 раз, раздача полностью - 26 раз
Размер: 33,82 GB
Оценка:  - (Голосов: 0)
Поблагодарили: 2
Поделиться ссылкой на эту раздачу с друзьями:
В контактеFacebookОдноклассникиTwitterLivejournalМой МирLiveinternet
 

 
Показать сообщения:    


Вы не можете начинать темы
Вы не можете отвечать на сообщения
Вы не можете редактировать свои сообщения
Вы не можете удалять свои сообщения
Вы не можете голосовать в опросах
Вы не можете прикреплять файлы к сообщениям
Вы можете скачивать файлы