Loading...
Error

Скачать Пожарные Чикаго / Чикаго в огне / Chicago Fire (сезон 03) (Джо Чаппелль) и др.) [2014, драма, боевик, WEB-DLRip] [VO (Д.Шадинский)]+[Eng]+[Sub Eng] торрент без регистрации

 
Статистика раздачи
Размер:  18,92 GB   |    Скачан:  159 раз
Сидов:  1  [  0 KB/s  ]  
 
Автор Сообщение

МихаНЕзатор

[] 

Информация о фильме
Название: Пожарные Чикаго / Чикаго в огне
Оригинальное название: Chicago Fire
Год выхода: 2014
Жанр: драма, боевик
Режиссер: Джо Чаппелль, Жан Де Сегонзак, Майкл Словис

В ролях: Тейлор Кинни, Джесси Спенсер, Моника Рэйманд, Лорен Джерман, Чарли Барнетт, Юрий Сардаров, Имонн Уолкер, Кристиан Столте, Рэнди Флаглер, Энн Локхарт

О фильме: Firehouse 51 — это слаженная команда чикагских пожарных, спасателей и парамедиков, которые ежедневно и еженощно спасают жизни людей попавших в плен огненной стихии. Лейтенант Мэтью Кейси — прирожденный лидер и настоящий пожарный. После разрыва с любимой женщиной он во многом пересмотрел свои взгляды на многие вещи. А после гибели друга и коллеги Эндрю Дардена, Кейси теперь постоянно находится в конфронтации с другим членом команды — спасателем, лейтенантом Келли Северайдом. Они не могут смириться с потерей друга и поэтому обвиняют друг друга в смерти Дардена. Также в команду входят новичок Питер Миллс, чей отец также был пожарным, два парамедика: Габриэла Доусон и Лесли Шей и шеф - Уоллес Боден. Находясь на переднем рубеже жизни и смерти, им приходится принимать не простые решения, они постоянно рискуют своими жизнями, надеясь лишь на поддержку коллег и друзей, что бы ни случилось...

Релиз:

Страна: США, Universal TV, Wolf Films
Продолжительность: ~ 00:43:00
Перевод: Профессиональный (одноголосый закадровый) - Anna_Gerts, ntnext, Денис Шадинский

Файл
Кодек: XviD
Качество: WEB-DLRip
Видео: ~ 2000 Кбит/с, 720x400, 23.976 кадр/с
Звук: Русский, английский (AC3, 6 ch, 384 Кбит/с)
Субтитры: Английские

АНОНСЫ ПОПУЛЯРНЫХ РАЗДАЧ


Торрент обновлён, добавлена 23-я серия!
Работа со звуком : 13napas
Рип: ЛП (CasStudio)
Перевод: Anna_Gerts, ntnext, Денис Шадинский
Озвучка: Денис Шадинский
Общее
Полное имя : Chicago Fire Season 3 CasStudio.TVChicago.Fire.s03e01.rus.eng.CasStudio.TV.avi
Формат : AVI
Формат/Информация : Audio Video Interleave
Размер файла : 851 Мбайт
Продолжительность : 42 м.
Общий поток : 2782 Кбит/сек
Программа кодирования : VirtualDubMod 1.5.10.2 (build 2540/release)
Библиотека кодирования : VirtualDubMod build 2540/release

Видео
Идентификатор : 0
Формат : MPEG-4 Visual
Профиль формата : Advanced Simple@L5
Параметр BVOP формата : 1
Параметр QPel формата : Нет
Параметр GMC формата : Без точки перехода
Параметр матрицы формата : Default (MPEG)
Идентификатор кодека : XVID
Идентификатор кодека/Подсказка : XviD
Продолжительность : 42 м.
Битрейт : 1893 Кбит/сек
Ширина : 720 пикселей
Высота : 400 пикселей
Соотношение сторон : 16:9
Частота кадров : 23,976 кадра/сек
Цветовое пространство : YUV
Субдискретизация насыщенности : 4:2:0
Битовая глубина : 8 бит
Тип развёртки : Прогрессивная
Метод сжатия : С потерями
Бит/(Пиксели*Кадры) : 0.274
Размер потока : 579 Мбайт (68%)
Библиотека кодирования : XviD 65

Аудио #1
Идентификатор : 1
Формат : AC-3
Формат/Информация : Audio Coding 3
Расширение режима : CM (complete main)
Параметр Endianness формата : Big
Идентификатор кодека : 2000
Продолжительность : 42 м.
Вид битрейта : Постоянный
Битрейт : 384 Кбит/сек
Каналы : 6 каналов
Расположение каналов : Front: L C R, Side: L R, LFE
Частота : 48,0 КГц
Битовая глубина : 16 бит
Метод сжатия : С потерями
Размер потока : 118 Мбайт (14%)
Выравнивание : Разделение по промежуткам

Аудио #2
Идентификатор : 2
Формат : AC-3
Формат/Информация : Audio Coding 3
Расширение режима : CM (complete main)
Параметр Endianness формата : Big
Идентификатор кодека : 2000
Продолжительность : 42 м.
Вид битрейта : Постоянный
Битрейт : 384 Кбит/сек
Каналы : 6 каналов
Расположение каналов : Front: L C R, Side: L R, LFE
Частота : 48,0 КГц
Битовая глубина : 16 бит
Метод сжатия : С потерями
Размер потока : 118 Мбайт (14%)
Выравнивание : Разделение по промежуткам



Скачать Пожарные.Чикаго.Чикаго.в.огне.Chicago.Fire.(сезон.03).(Джо.Чаппелль).и.др.).[2014.драма.боевик.WEB-DLRip].[VO.(Д.Шадинский)]+[Eng]+[Sub.Eng].torrent без регистрации
Золото ЗОЛОТАЯ РАЗДАЧА! СКАЧАННОЕ НЕ ЗАСЧИТЫВАЕТСЯ! Золото
Дата: Зарегистрирован   [ Тип: внутренний ] Как тут cкачать?
MAGNET ссылка
MAGNET ссылка


Скачать .torrent

52 KB

Статус: проверено DHT
Скачан: торрент - 159 раз, раздача полностью - 6 раз
Размер: 18,92 GB
Оценка:  4 (Голосов: 1)
Поблагодарили: 2
Поделиться ссылкой на эту раздачу с друзьями:
В контактеFacebookОдноклассникиTwitterLivejournalМой МирLiveinternet
 

 
Показать сообщения:    


Вы не можете начинать темы
Вы не можете отвечать на сообщения
Вы не можете редактировать свои сообщения
Вы не можете удалять свои сообщения
Вы не можете голосовать в опросах
Вы не можете прикреплять файлы к сообщениям
Вы можете скачивать файлы