Loading...
Error

Скачать Взрослая неожиданность / Role Models [UNRATED] (Дэвид Уэйн) [2008, комедия, BDRip-AVC] [Dub]+[Sub]x2 торрент без регистрации

 
Статистика раздачи
Размер:  1,96 GB   |    Скачан:  131 раз
Сидов:  1  [  0 KB/s  ]  
 
Автор Сообщение

Marsianka

[] 

Информация о фильме:
Название: Взрослая неожиданность
Оригинальное название: Role Models
Год выхода: 2008
Жанр: комедия
Режиссер: Дэвид Уэйн
В главных ролях: Шонн Уильям Скотт, Пол Радд, Кристофер Минц-Плассе, Бобби Дж. Томпсон, Элизабет Бэнкс, Джейн Линч, Кен Жонг, Кен Марино, Керри Кенни, А.Д. Майлз

О фильме:
Пройдохи Денни и Уиллер — представители компании, торгующей энергетическими напитками. Однажды они переворачивают хозяйский грузовик и отправляются под суд. Чтобы не оказаться за решеткой, бедокуры решают схитрить и поучаствовать в многочасовой воспитательной программе для детей. Через день они понимают, что лучше бы выбрали тюрьму. Денни выпала нелегкая доля: сделать из сопливого шестнадцатилетнего паренька, одержимого средневековыми постановками, настоящего мужчину. Меж тем, Уиллер воспитывает пятиклассника Ронни. Возможно, из этой затеи вышел бы прок, не окажись первый большим любителем венецианских пляжей и легкого алкоголя.



Выпущено: США (Universal)
Продолжительность: 01:41:07
Перевод: Профессиональный (Дублированный)
Субтитры: Русские, Английские

Файл:
Формат: MKV
Качество: BDRip-AVC
Видео: 1056x572, 23.976 fps, High@L4.1, ~2273 kbps
Аудио: 48 kHz, AC3 Dolby Digital, 3/2 (L,C,R,l,r) + LFE ch, ~448 kbps
General
Unique ID : 242516687544779540608866579352033386375 (0xB67303DAAF35F527A77F9AD321A35F87)
Complete name : D:КИНОVzroslaja.Neozhidannost'.(2008).BDRip-AVC.[-=DoMiNo=-].mkv
Format : Matroska
Format version : Version 4 / Version 2
File size : 1.96 GiB
Duration : 1h 41mn
Overall bit rate : 2 776 Kbps
Movie name : Role Models.(2008).BDRip-AVC.[-=DoMiNo=-]
Encoded date : UTC 2014-11-24 02:35:38
Writing application : mkvmerge v7.3.0 ('Nouages') 64bit built on Oct 22 2014 18:53:34
Writing library : libebml v1.3.0 + libmatroska v1.4.1
DURATION : 01:37:11.800000000
NUMBER_OF_FRAMES : 1976
NUMBER_OF_BYTES : 66470
_STATISTICS_WRITING_APP : mkvmerge v7.3.0 ('Nouages') 64bit built on Oct 22 2014 18:53:34
_STATISTICS_WRITING_DATE_UT : 2014-11-24 02:35:38
_STATISTICS_TAGS : BPS DURATION NUMBER_OF_FRAMES NUMBER_OF_BYTES

Video
ID : 1
Format : AVC
Format/Info : Advanced Video Codec
Format profile : High@L4.1
Format settings, CABAC : Yes
Format settings, ReFrames : 12 frames
Codec ID : V_MPEG4/ISO/AVC
Duration : 1h 41mn
Bit rate : 2 273 Kbps
Width : 1 056 pixels
Height : 572 pixels
Display aspect ratio : 1.85:1
Frame rate mode : Constant
Frame rate : 23.976 fps
Color space : YUV
Chroma subsampling : 4:2:0
Bit depth : 8 bits
Scan type : Progressive
Bits/(Pixel*Frame) : 0.157
Stream size : 1.61 GiB (82%)
Title : Role Models
Writing library : x264 core 142 r2479M dd79a61
Encoding settings : cabac=1 / ref=12 / deblock=1:-3:-3 / analyse=0x3:0x133 / me=umh / subme=10 / psy=1 / psy_rd=1,00:0,10 / mixed_ref=1 / me_range=32 / chroma_me=1 / trellis=2 / 8x8dct=1 / cqm=0 / deadzone=21,11 / fast_pskip=0 / chroma_qp_offset=-3 / threads=14 / lookahead_threads=3 / sliced_threads=0 / nr=0 / decimate=0 / interlaced=0 / bluray_compat=0 / constrained_intra=0 / bframes=11 / b_pyramid=2 / b_adapt=2 / b_bias=2 / direct=1 / weightb=1 / open_gop=0 / weightp=2 / keyint=230 / keyint_min=23 / scenecut=40 / intra_refresh=0 / rc=crf / mbtree=0 / crf=19,5 / qcomp=0,60 / qpmin=10 / qpmax=69 / qpstep=4 / ip_ratio=1,40 / pb_ratio=1,30 / aq=1:1,00
Language : English
Default : Yes
Forced : No
DURATION : 01:41:06.978000000
NUMBER_OF_FRAMES : 145462
NUMBER_OF_BYTES : 1764305511
_STATISTICS_WRITING_APP : mkvmerge v7.3.0 ('Nouages') 64bit built on Oct 22 2014 18:53:34
_STATISTICS_WRITING_DATE_UT : 2014-11-24 02:35:38
_STATISTICS_TAGS : BPS DURATION NUMBER_OF_FRAMES NUMBER_OF_BYTES

Audio
ID : 2
Format : AC-3
Format/Info : Audio Coding 3
Mode extension : CM (complete main)
Format settings, Endianness : Big
Codec ID : A_AC3
Duration : 1h 41mn
Bit rate mode : Constant
Bit rate : 448 Kbps
Channel(s) : 6 channels
Channel positions : Front: L C R, Side: L R, LFE
Sampling rate : 48.0 KHz
Bit depth : 16 bits
Compression mode : Lossy
Delay relative to video : -83ms
Stream size : 324 MiB (16%)
Title : DUB
Language : Russian
Default : Yes
Forced : No

Text #1
ID : 3
Format : UTF-8
Codec ID : S_TEXT/UTF8
Codec ID/Info : UTF-8 Plain Text
Title : RUS
Language : Russian
Default : No
Forced : No

Text #2
ID : 4
Format : UTF-8
Codec ID : S_TEXT/UTF8
Codec ID/Info : UTF-8 Plain Text
Title : ENG
Language : English
Default : No
Forced : No

Menu
00:00:00.000 : :Chapter 01
00:05:38.462 : :Chapter 02
00:09:40.327 : :Chapter 03
00:13:34.686 : :Chapter 04
00:18:38.865 : :Chapter 05
00:24:18.623 : :Chapter 06
00:28:50.935 : :Chapter 07
00:32:07.797 : :Chapter 08
00:38:01.527 : :Chapter 09
00:43:41.367 : :Chapter 10
00:49:48.235 : :Chapter 11
00:55:32.286 : :Chapter 12
01:00:50.896 : :Chapter 13
01:07:46.436 : :Chapter 14
01:12:22.671 : :Chapter 15
01:16:56.612 : :Chapter 16
01:22:19.809 : :Chapter 17
01:27:37.335 : :Chapter 18
01:32:24.328 : :Chapter 19
01:38:02.710 : :Chapter 20
01:41:06.810 : :Chapter 21







Скачать Взрослая.неожиданность.Role.Models.[UNRATED].(Дэвид.Уэйн).[2008.комедия.BDRip-AVC].[Dub]+[Sub]x2.torrent без регистрации
Золото ЗОЛОТАЯ РАЗДАЧА! СКАЧАННОЕ НЕ ЗАСЧИТЫВАЕТСЯ! Золото
Дата: Зарегистрирован   [ Тип: внутренний ] Как тут cкачать?
MAGNET ссылка
MAGNET ссылка


Скачать .torrent

20 KB

Статус: проверено DHT
Скачан: торрент - 131 раз, раздача полностью - 32 раз
Размер: 1,96 GB
Оценка:  - (Голосов: 0)
Поблагодарили: 2
Поделиться ссылкой на эту раздачу с друзьями:
В контактеFacebookОдноклассникиTwitterLivejournalМой МирLiveinternet
 

 
Показать сообщения:    


Вы не можете начинать темы
Вы не можете отвечать на сообщения
Вы не можете редактировать свои сообщения
Вы не можете удалять свои сообщения
Вы не можете голосовать в опросах
Вы не можете прикреплять файлы к сообщениям
Вы можете скачивать файлы