Loading...
Error

Скачать Манон с источника / Manon des sources (Клод Берри) [1986, драма, HDRip] [MVO] торрент без регистрации

 
Статистика раздачи
Размер:  1,37 GB   |    Скачан:  98 раз
Сидов:  1  [  0 KB/s  ]  
 
Автор Сообщение

Marsianka

[] 

Манон с источника / Manon des sources (1986) HDRip

Информация о фильме
Название: Манон с источника
Оригинальное название: Manon des sources
Год выхода: 1986
Жанр: драма
Режиссер: Клод Берри

В ролях: Ив Монтан, Даниель Отой, Элизабет Депардьё, Эммануэль Беар, Маргарита Лосано, Арман Меффр, Пьер Нугаро, Жан Морель, Роже Суза, Дидье Пэн, Пьер-Жан Рипперт, Марк Беттон, Клементе Кэл, Бенедетто Бертино, Франсинед, Марсель Бербер...

О фильме: Вторая часть экранизации романа Марселя Паньоля. Манон было 8 лет, когда её отец-горбун умер, так и не найдя воду на своей земле. Ферму по дешевке прибирает семья Субейранов, когда-то специально засыпавшая источник.

Восемнадцатилетняя красавица-пастушка Манон, уединенно живущая в горах, узнает правду и отвергает притязания племянника главы семейства Юголина, доведя его до самоубийства. А потом перекрывает источник и оставляет ферму без воды…



Страна: Италия, Франция, Швейцария
Продолжительность: 01:53:28
Перевод: Профессиональный (многоголосый закадровый)

Файл
Кодек: XviD
Качество: HDRip
Видео: 720x304 (2,35:1 ), 24 fps, 1527 kbps, 0.291 bit/pixel
Звук: 48 kHz, AC3 Dolby Digital, 2 ch, ~192.00 kbps

Общее
Полное имя : D:Manon des sources.1986.HDRip.avi
Формат : AVI
Формат/Информация : Audio Video Interleave
Размер файла : 1,37 Гбайт
Продолжительность : 1 ч. 53 м.
Общий поток : 1728 Кбит/сек
Название фильма : Manon des sources.1986.HDRip
Программа кодирования : VirtualDubModRus 1.5.10.2 (build 2542/release)
Правообладатель : rip by Rulya74

Видео
Идентификатор : 0
Формат : MPEG-4 Visual
Профиль формата : Advanced Simple@L5
Параметр BVOP формата : 1
Параметр QPel формата : Нет
Параметр GMC формата : Без точки перехода
Параметр матрицы формата : Выборочная
Идентификатор кодека : XVID
Идентификатор кодека/Подсказка : XviD
Продолжительность : 1 ч. 53 м.
Битрейт : 1527 Кбит/сек
Ширина : 720 пикселей
Высота : 304 пикселя
Соотношение сторон : 2,35:1
Частота кадров : 24,000 кадра/сек
Цветовое пространство : YUV
Субдискретизация насыщенности : 4:2:0
Битовая глубина : 8 бит
Тип развёртки : Прогрессивная
Метод сжатия : С потерями
Бит/(Пиксели*Кадры) : 0.291
Размер потока : 1,21 Гбайт (88%)
Библиотека кодирования : XviD 66

Аудио
Идентификатор : 1
Формат : AC-3
Формат/Информация : Audio Coding 3
Расширение режима : CM (complete main)
Параметр Endianness формата : Big
Идентификатор кодека : 2000
Продолжительность : 1 ч. 53 м.
Вид битрейта : Постоянный
Битрейт : 192 Кбит/сек
Каналы : 2 канала
Расположение каналов : Front: L R
Частота : 48,0 КГц
Битовая глубина : 16 бит
Метод сжатия : С потерями
Размер потока : 156 Мбайт (11%)
Выравнивание : Разделение по промежуткам
Продолжительность промежутка : 42 мс. (1,00 видеокадр)
Время предзагрузки промежутка : 500 мс.
Заголовок : Многоголосый закадровый (профессиональный)



Скачать Манон.с.источника.Manon.des.sources.(Клод.Берри).[1986.драма.HDRip].[MVO].torrent без регистрации
Золото ЗОЛОТАЯ РАЗДАЧА! СКАЧАННОЕ НЕ ЗАСЧИТЫВАЕТСЯ! Золото
Дата: Зарегистрирован   [ Тип: внутренний ] Как тут cкачать?
MAGNET ссылка
MAGNET ссылка


Скачать .torrent

14 KB

Статус: проверено DHT
Скачан: торрент - 98 раз, раздача полностью - 2 раз
Размер: 1,37 GB
Оценка:  - (Голосов: 0)
Поблагодарили: 2
Поделиться ссылкой на эту раздачу с друзьями:
В контактеFacebookОдноклассникиTwitterLivejournalМой МирLiveinternet
 

 
Показать сообщения:    


Вы не можете начинать темы
Вы не можете отвечать на сообщения
Вы не можете редактировать свои сообщения
Вы не можете удалять свои сообщения
Вы не можете голосовать в опросах
Вы не можете прикреплять файлы к сообщениям
Вы можете скачивать файлы