Loading...
Error

Скачать Флэш / The Flash (сезон 01) (Дэвид Наттер) [2014, драма, фантастика, WEB-DL] [1080p] [DVO (Alternative Production)] торрент без регистрации

 
Статистика раздачи
Размер:  39,69 GB   |    Скачан:  315 раз
Сидов:  1  [  0 KB/s  ]  
 
Автор Сообщение

МихаНЕзатор

[] 

Информация о фильме
Название: Флэш
Оригинальное название: The Flash
Год выхода: 2014
Жанр: Драма, фантастика
Режиссер: Дэвид Наттер

В ролях: Грант Гастин, Кэндис Паттон, Даниэль Панабэйкер, Рик Коснетт, Карлос Вальдес, Томас Кэвэна, Джесси Л. Мартин, Джон Уэсли Шипп, Грег Финли, Вентворт Миллер, Мишель Харрисон,Эмили Бетт Рикардс, Стивен Амелл, Келли Фрай, Уильям Сэдлер, Робби Амелл и др.

О фильме: Когда Барри Аллен был маленьким, больше всего на свете ему хотелось быть супергероем — тем, кто превосходит лимиты человеческого организма и использует во благо данную ему силу. Когда Барри было одиннадцать лет, он на собственном опыте узнал, что люди с необычными способностями действительно существуют: его мать была убита одним из таких людей. Повзрослев и став судмедэкспертом, Барри не отбросил мыслей о сверхлюдях и продолжал искать доказательства их существования, что не лучшим образом сказывалось на его репутации и общении с коллегами. Впрочем, однажды его усилия были вознаграждены…

Релиз от:

Страна: США
Продолжительность: ~ 00:45:00
Перевод: Любительский двухголосый - Alternative Production

Файл
Кодек: H.264
Качество: WEB-DL 1080p
Видео: H.264, 1916x1076 (16:9), 23.976 fps, 4 996 Kbps, 0.101 bit/pixe
Звук:
Аудио 1:AC3 Dolby Digital, 48 kHz, 3/2 (L,C,R,l,r) + LFE ch, 384 kbps
Аудио 2:AC3 Dolby Digital, 48 kHz, 3/2 (L,C,R,l,r) + LFE ch, 384 kbps
Субтитры: отсутствуют

АНОНСЫ ПОПУЛЯРНЫХ РАЗДАЧ


Торрент обновлён, добавлена 23-я серия!

01. City of Heroes / Город героев
02. Fastest Man Alive / Самый быстрый человек на Земле
03. Things You Can't Outrun
04. Going Rogue / Да наступит беспредел
05. Plastique / Пластик
06. The Flash Is Born / Рождение Флэша
07. Power Outage / Отключение энергии
08. Flash vs. Arrow / Флэш против Стрелы
09. The Man in the Yellow Suit / Человек в желтом
10. Revenge of the Rogues / Месть негодяев
11. The Sound and the Fury / Шум и ярость
12. Crazy for You / Без ума от тебя
13. The Nuclear Man / Ядерный человек
14. Fallout / Осадок
15. Out of Time / Время на исходе
16. Rogue Time / Безумное время
17. Tricksters / Трюкачи
18. All-Star Team Up / Звёздная команда
19. Who Is Harrison Wells? / Кто вы, Харрисон Уэллс?
20. The Trap / Западня
21. Grodd Lives / Гродд жив
22. Rogue Air / Безумное небо
23. Fast Enough / Достаточно быстро
General
Unique ID : 192696861031900459911905766729301895999 (0x90F810C3A145122ABAC99FF4C7242B3F)
Format : Matroska
Format version : Version 4 / Version 2
File size : 1.83 GiB
Duration : 44mn 33s
Overall bit rate : 5 881 Kbps
Encoded date : UTC 2014-10-08 11:10:53
Writing application : mkvmerge v6.4.1 ('Omega Point') built on Sep 16 2013 22:05:10
Writing library : libebml v1.3.0 + libmatroska v1.4.1
Attachment : Yes

Video
ID : 1
Format : AVC
Format/Info : Advanced Video Codec
Format profile : High@L4.0
Format settings, CABAC : Yes
Format settings, ReFrames : 4 frames
Codec ID : V_MPEG4/ISO/AVC
Duration : 44mn 33s
Bit rate : 4 996 Kbps
Width : 1 916 pixels
Height : 1 076 pixels
Display aspect ratio : 16:9
Frame rate mode : Constant
Frame rate : 23.976 fps
Color space : YUV
Chroma subsampling : 4:2:0
Bit depth : 8 bits
Scan type : Progressive
Bits/(Pixel*Frame) : 0.101
Stream size : 1.56 GiB (85%)
Title : H.264
Default : Yes
Forced : No
Color primaries : BT.709
Transfer characteristics : BT.709
Matrix coefficients : BT.709

Audio #1
ID : 2
Format : AC-3
Format/Info : Audio Coding 3
Mode extension : CM (complete main)
Format settings, Endianness : Big
Codec ID : A_AC3
Duration : 44mn 33s
Bit rate mode : Constant
Bit rate : 384 Kbps
Channel count : 6 channels
Channel positions : Front: L C R, Side: L R, LFE
Sampling rate : 48.0 KHz
Bit depth : 16 bits
Compression mode : Lossy
Stream size : 122 MiB (7%)
Title : Alt Pro
Language : Russian
Default : Yes
Forced : No

Audio #2
ID : 3
Format : AC-3
Format/Info : Audio Coding 3
Mode extension : CM (complete main)
Format settings, Endianness : Big
Codec ID : A_AC3
Duration : 44mn 33s
Bit rate mode : Constant
Bit rate : 384 Kbps
Channel count : 6 channels
Channel positions : Front: L C R, Side: L R, LFE
Sampling rate : 48.0 KHz
Bit depth : 16 bits
Compression mode : Lossy
Stream size : 122 MiB (7%)
Title : DD5.1
Language : English
Default : No
Forced : No

Внимание! Раздача ведётся путём добавления новых серий; при каждом добавлении создаётся новый торрент. Чтобы начать докачку новой серии, пользователям необходимо сделать следующее:
(1) остановить скачивание,
(2) удалить старый торрент у себя из клиента (старые серии удалять не надо),
(3) скачать новый торрент и запустить его у себя в клиенте вместо старого, при этом указать клиенту путь в старую папку куда и должно происходить скачивание новых серий.

Ваш клиент при этом должен произвести хеширование (проверку) старой папки (если не производит сам - помогите ему сделать это), и будет докачивать только те серии которых у вас ещё нет. Старые серии при этом не удаляются, а продолжают раздаваться!

Eсли вы уже удалили старые серии, то предотвратить повторную закачку старых серий можно, отжав галочку в соответсвующих местах при запуске нового торрента. По возможности, желательно не удалять старые серии как можно дольше чтобы релизёр не столько продолжал раздавать старые серии, а смог сконцентрироваться на новых.



Скачать Флэш.The.Flash.(сезон.01).(Дэвид.Наттер).[2014.драма.фантастика.WEB-DL].[1080p].[DVO.(Alternative.Production)].torrent без регистрации
Золото ЗОЛОТАЯ РАЗДАЧА! СКАЧАННОЕ НЕ ЗАСЧИТЫВАЕТСЯ! Золото
Дата: Зарегистрирован   [ Тип: внутренний ] Как тут cкачать?
MAGNET ссылка
MAGNET ссылка


Скачать .torrent

102 KB

Статус: проверено DHT
Скачан: торрент - 315 раз, раздача полностью - 1 раз
Размер: 39,69 GB
Оценка:  5 (Голосов: 1)
Поблагодарили: 3
Поделиться ссылкой на эту раздачу с друзьями:
В контактеFacebookОдноклассникиTwitterLivejournalМой МирLiveinternet
 

 
Показать сообщения:    


Вы не можете начинать темы
Вы не можете отвечать на сообщения
Вы не можете редактировать свои сообщения
Вы не можете удалять свои сообщения
Вы не можете голосовать в опросах
Вы не можете прикреплять файлы к сообщениям
Вы можете скачивать файлы