Loading...
Error

Скачать А как же Боб? / What About Bob? (Фрэнк Оз) [1991, комедия, WEB-DLRip] [Dub]+[MVO]x2+[AVO]+[Sub]x2 торрент без регистрации

 
Статистика раздачи
Размер:  2,19 GB   |    Скачан:  92 раза
Сидов:  1  [  0 KB/s  ]  
 
Автор Сообщение

Marsianka

[] 

А как же Боб?
| What About Bob? |


Информация о фильме
Название: А как же Боб?
Оригинальное название: What About Bob?
Год выхода: 1991
Жанр: комедия
Режиссер: Фрэнк Оз
В ролях: Билл Мюррэй, Ричард Дрейфусс, Джули Хэгерти, Чарли Корсмо, Кэтрин Эрбе, Том Элдридж, Сьюзэн Уиллис, Роджер Боуэн, Фрэн Брилл, Брайан Редди, Дорис Белак, Мелинда Маллинз, Марселла Лоури, Марго Уэлш, Барбара Андрес, Аида Туртурро, Стюарт Рудин, Кортез Нэнс мл., Лори Тан Чинн, Дэннис Скотт, Чарльз Томас Бакстер, Дональд Дж. Ли мл., Рег Э. Кэти, Том Стечшульт, Расселл Боббитт, Ричард Фэнси, Джоан Ланден

О фильме:
Страдающий от одиночества и расстройства психики человек по имени Боб приходит на приём к психоаналитику Лео Марвину, но у того нет времени, он как раз собирается в долгожданный отпуск со всей семьёй. Чтобы избавиться от навязчивого пациента, доктор вручает ему книгу собственного сочинения под названием «Шаги ребёнка». Неожиданно книга оказывает положительное влияние на состояние здоровья Боба. Чтобы поблагодарить доктора и чтобы получить дополнительные консультации, Боб должен найти его и провести с ним этот отпуск. Это непростое испытание и для Боба, и для доктора, и для его семьи, но обаяние, чуткость и остроумие пациента помогут всем победить свои проблемы и найти мир и согласие.



Страна: США
Студия: Touchstone Pictures, Touchwood Pacific Partners 1
Продолжительность: 01:39:22
Перевод: Дублированный, профессиональный многоголосый, авторский

Файл
Кодек: XviD
Качество: WEB-DLRip
Видео: 1974 Кбит/с, 720x384, 23.976 кадр/с
• №1: Русский (AC3, 2 ch, 192 Кбит/с) Дублированный
• №2: Русский (AC3, 2 ch, 192 Кбит/с) Профессиональный многоголосый [R5]
• №3: Русский (AC3, 2 ch, 192 Кбит/с) Профессиональный многоголосый [СТС]
• №4: Русский (AC3, 2 ch, 192 Кбит/с) Авторский одноголосый [Алексей Михалев]
• №5: Английский (AC3, 6 ch, 384 Кбит/с)

Субтитры: Русские (форсированные, полные), английские (SDH)

Полное имя : What.About.Bob.1991.XviD.WEB-DLRip.0ptimus.avi
Формат : AVI
Формат/Информация : Audio Video Interleave
Профиль формата : OpenDML
Размер файла : 2,19 Гбайт
Продолжительность : 1 ч. 39 м.
Общий поток : 3160 Кбит/сек
Название фильма : А как же Боб? | What About Bob? [1991]
Режиссёр : 0ptimus
Жанр : Comedy
Программа кодирования : VirtualDubMod 1.5.10.2 (build 2540/release)
Библиотека кодирования : VirtualDubMod build 2540/release
Формат оригинала/Имя : Movie
Правообладатель : kinozal.tv
Примечание : DUB, MVO, AVO, ENG

Видео
Идентификатор : 0
Формат : MPEG-4 Visual
Профиль формата : Advanced Simple@L5
Параметр BVOP формата : 1
Параметр QPel формата : Нет
Параметр GMC формата : Без точки перехода
Параметр матрицы формата : Выборочная
Идентификатор кодека : XVID
Идентификатор кодека/Подсказка : XviD
Продолжительность : 1 ч. 39 м.
Битрейт : 1974 Кбит/сек
Ширина : 720 пикселей
Высота : 384 пикселя
Соотношение сторон : 1,85:1
Частота кадров : 23,976 кадра/сек
Цветовое пространство : YUV
Субдискретизация насыщенности : 4:2:0
Битовая глубина : 8 бит
Тип развёртки : Прогрессивная
Метод сжатия : С потерями
Бит/(Пиксели*Кадры) : 0.298
Размер потока : 1,37 Гбайт (62%)
Библиотека кодирования : XviD 64

Аудио #1
Идентификатор : 1
Формат : AC-3
Формат/Информация : Audio Coding 3
Расширение режима : CM (complete main)
Параметр Endianness формата : Big
Идентификатор кодека : 2000
Продолжительность : 1 ч. 39 м.
Вид битрейта : Постоянный
Битрейт : 192 Кбит/сек
Каналы : 2 канала
Расположение каналов : Front: L R
Частота : 48,0 КГц
Битовая глубина : 16 бит
Метод сжатия : С потерями
Размер потока : 136 Мбайт (6%)
Выравнивание : Разделение по промежуткам
Продолжительность промежутка : 42 мс. (1,00 видеокадр)
Время предзагрузки промежутка : 500 мс.
Заголовок : Дублированный

Аудио #2
Идентификатор : 2
Формат : AC-3
Формат/Информация : Audio Coding 3
Расширение режима : CM (complete main)
Параметр Endianness формата : Big
Идентификатор кодека : 2000
Продолжительность : 1 ч. 39 м.
Вид битрейта : Постоянный
Битрейт : 192 Кбит/сек
Каналы : 2 канала
Расположение каналов : Front: L R
Частота : 48,0 КГц
Битовая глубина : 16 бит
Метод сжатия : С потерями
Размер потока : 136 Мбайт (6%)
Выравнивание : Разделение по промежуткам
Продолжительность промежутка : 42 мс. (1,00 видеокадр)
Время предзагрузки промежутка : 500 мс.
Заголовок : Многоголосый R5

Аудио #3
Идентификатор : 3
Формат : AC-3
Формат/Информация : Audio Coding 3
Расширение режима : CM (complete main)
Параметр Endianness формата : Big
Идентификатор кодека : 2000
Продолжительность : 1 ч. 39 м.
Вид битрейта : Постоянный
Битрейт : 192 Кбит/сек
Каналы : 2 канала
Расположение каналов : Front: L R
Частота : 48,0 КГц
Битовая глубина : 16 бит
Метод сжатия : С потерями
Размер потока : 136 Мбайт (6%)
Выравнивание : Разделение по промежуткам
Продолжительность промежутка : 42 мс. (1,00 видеокадр)
Время предзагрузки промежутка : 500 мс.
Заголовок : Многоголосый СТС

Аудио #4
Идентификатор : 4
Формат : AC-3
Формат/Информация : Audio Coding 3
Расширение режима : CM (complete main)
Параметр Endianness формата : Big
Идентификатор кодека : 2000
Продолжительность : 1 ч. 39 м.
Вид битрейта : Постоянный
Битрейт : 192 Кбит/сек
Каналы : 2 канала
Расположение каналов : Front: L R
Частота : 48,0 КГц
Битовая глубина : 16 бит
Метод сжатия : С потерями
Размер потока : 136 Мбайт (6%)
Выравнивание : Разделение по промежуткам
Продолжительность промежутка : 42 мс. (1,00 видеокадр)
Время предзагрузки промежутка : 500 мс.
Заголовок : Авторский (Алексей Михалев)

Аудио #5
Идентификатор : 5
Формат : AC-3
Формат/Информация : Audio Coding 3
Расширение режима : CM (complete main)
Параметр Endianness формата : Big
Идентификатор кодека : 2000
Продолжительность : 1 ч. 39 м.
Вид битрейта : Постоянный
Битрейт : 384 Кбит/сек
Каналы : 6 каналов
Расположение каналов : Front: L C R, Side: L R, LFE
Частота : 48,0 КГц
Битовая глубина : 16 бит
Метод сжатия : С потерями
Размер потока : 272 Мбайт (12%)
Выравнивание : Разделение по промежуткам
Продолжительность промежутка : 42 мс. (1,00 видеокадр)
Время предзагрузки промежутка : 500 мс.
Заголовок : Английский
Релиз от:



Скачать А.как.же.Боб?.What.About.Bob?.(Фрэнк.Оз).[1991.комедия.WEB-DLRip].[Dub]+[MVO]x2+[AVO]+[Sub]x2.torrent без регистрации
Золото ЗОЛОТАЯ РАЗДАЧА! СКАЧАННОЕ НЕ ЗАСЧИТЫВАЕТСЯ! Золото
Дата: Зарегистрирован   [ Тип: внутренний ] Как тут cкачать?
MAGNET ссылка
MAGNET ссылка


Скачать .torrent

23 KB

Статус: проверено DHT
Скачан: торрент - 92 раз, раздача полностью - 1 раз
Размер: 2,19 GB
Оценка:  5 (Голосов: 1)
Поблагодарили: 1
Поделиться ссылкой на эту раздачу с друзьями:
В контактеFacebookОдноклассникиTwitterLivejournalМой МирLiveinternet
 

 
Показать сообщения:    


Вы не можете начинать темы
Вы не можете отвечать на сообщения
Вы не можете редактировать свои сообщения
Вы не можете удалять свои сообщения
Вы не можете голосовать в опросах
Вы не можете прикреплять файлы к сообщениям
Вы можете скачивать файлы