Loading...
Error

Скачать За нас двоих / A nous deux (Клод Лелуш) [1979, мелодрама, криминал, DVDRip-AVC] [MVO]+[Оригинал]+[Sub] торрент без регистрации

 
Статистика раздачи
Размер:  1,45 GB   |    Скачан:  105 раз
Сидов:  1  [  0 KB/s  ]  
 
Автор Сообщение

Marsianka

[] 

Год выпуска: 1979
Страна: Франция, Канада
Студии: Les Films 13, Cinévidéo

Жанр: мелодрама, криминал
Продолжительность: 01:47:05

Перевод: Профессиональный (многоголосый закадровый)
Субтитры: русский
Оригинальная аудиодорожка: французский

Режиссер: Клод Лелуш / Claude Lelouch

В ролях: Катрин Денев, Жак Дютронк, Жак Вильре, Поль Пребуа, Бернар Ле Кок, Жильбер Женья, Жак Годен, Моник Мелинан, Эмиль Жене, Бернар Кромбей, Даниэль Отёй, Жерар Дармон, Ален Давид, Сонни Форбс, Сэм Левин, Мириам Мезьере, Ксавье Сен-Макари, Жерар Суруге, Ленни Чэнс, Жерар Кайло, Жан-Франсуа Реми, Мари-Пьер Де Жерандо, Банни Годилло, Дик Грант, Энн Жуссе, Эвелин Кер, Эли Лоэр, Жерар Лоро, Ги Ретор, Джимми Тапп, Кьяра Мастроянни, Жан-Поль Мюэль, Саймон Лелуш...

Описание: В рождественскую ночь потомственный мошенник Симон совершает побег из тюрьмы. У своих друзей он случайно знакомится с Франсуазой — девушкой из приличной семьи, по воле судьбы ставшей авантюристкой.
Франсуаза очень своеобразно зарабатывает на жизнь — она соблазняет мужчин, вместе со знакомым фотографом делает компрометирующие снимки и потом шантажирует «несчастных».
Однако, вскоре полиция выходит на след обоих искателей приключений — Симона и Франсуазы. Они решают вместе бежать из страны...

Исходник: DVD9
Тип релиза: DVDRip-AVC
Контейнер: MKV

Видео: 656x560 -> 992х560 (16:9), 25 fps, H264 ~ 1746 kbps avg, 0.190 bit/pixel
Аудио: 48 kHz, AC3, 2 ch, 192.00 kbps Constant

Общее
Полное имя : Za.nas.dvoih.1979Za.nas.dvoih.1979.DVDRip-AVC.mkv
Формат : Matroska
Версия формата : Version 2
Размер файла : 1,45 Гбайт
Продолжительность : 1 ч. 47 м.
Общий поток : 1940 Кбит/сек
Название фильма : Za.nas.dvoih.1979.DVDRip-AVC
Дата кодирования : UTC 2011-12-12 09:26:58
Программа кодирования : mkvmerge v5.0.1 ('Es ist Sommer') built on Oct 9 2011 11:55:43
Библиотека кодирования : libebml v1.2.2 + libmatroska v1.3.0

Видео
Идентификатор : 1
Формат : AVC
Формат/Информация : Advanced Video Codec
Профиль формата : High@L4.1
Параметр CABAC формата : Да
Параметр ReFrames формата : 6 кадров
Идентификатор кодека : V_MPEG4/ISO/AVC
Продолжительность : 1 ч. 47 м.
Битрейт : 1746 Кбит/сек
Ширина : 656 пикселей
Высота : 560 пикселей
Соотношение сторон : 1,630
Соотношение сторон в оригинале : 1,631
Частота кадров : 25,000 кадров/сек
Цветовое пространство : YUV
Субдискретизация насыщенности : 4:2:0
Битовая глубина : 8 бит
Тип развёртки : Прогрессивная
Бит/(Пиксели*Кадры) : 0.190
Размер потока : 1,28 Гбайт (88%)
Заголовок : Источник DVD
Библиотека кодирования : x264 core 119 r2106 07efeb4
Настройки программы : cabac=1 / ref=6 / deblock=1:-2:-1 / analyse=0x3:0x113 / me=umh / subme=6 / psy=1 / psy_rd=1.00:0.10 / mixed_ref=1 / me_range=32 / chroma_me=1 / trellis=1 / 8x8dct=1 / cqm=0 / deadzone=21,11 / fast_pskip=1 / chroma_qp_offset=-3 / threads=3 / sliced_threads=0 / nr=0 / decimate=1 / interlaced=0 / bluray_compat=0 / constrained_intra=0 / bframes=6 / b_pyramid=2 / b_adapt=1 / b_bias=0 / direct=3 / weightb=1 / open_gop=0 / weightp=0 / keyint=250 / keyint_min=25 / scenecut=40 / intra_refresh=0 / rc_lookahead=60 / rc=2pass / mbtree=1 / bitrate=1746 / ratetol=1.0 / qcomp=0.60 / qpmin=0 / qpmax=69 / qpstep=4 / cplxblur=20.0 / qblur=0.5 / ip_ratio=1.40 / aq=1:1.00
Язык : English
Default : Да
Forced : Нет

Аудио
Идентификатор : 2
Формат : AC-3
Формат/Информация : Audio Coding 3
Расширение режима : CM (complete main)
Идентификатор кодека : A_AC3
Продолжительность : 1 ч. 47 м.
Вид битрейта : Постоянный
Битрейт : 192 Кбит/сек
Каналы : 2 канала
Расположение каналов : Front: L R
Частота : 48,0 КГц
Битовая глубина : 16 бит
Метод сжатия : С потерями
Размер потока : 147 Мбайт (10%)
Заголовок : Источник DVD
Язык : Russian
Default : Да
Forced : Нет

Меню
00:00:00.000 : ru:00:00:00.000000000
00:05:00.000 : :00:05:00.000000000
00:10:00.000 : :00:10:00.000000000
00:15:00.000 : :00:15:00.000000000
00:20:00.000 : :00:20:00.000000000
00:25:00.000 : :00:25:00.000000000
00:30:00.000 : :00:30:00.000000000
00:35:00.000 : :00:35:00.000000000
00:40:00.000 : :00:40:00.000000000
00:45:00.000 : :00:45:00.000000000
00:50:00.000 : :00:50:00.000000000
00:55:00.000 : :00:55:00.000000000
01:00:00.000 : :01:00:00.000000000
01:05:00.000 : :01:05:00.000000000
01:10:00.000 : :01:10:00.000000000
01:15:00.000 : :01:15:00.000000000
01:20:00.000 : :01:20:00.000000000
01:25:00.000 : :01:25:00.000000000
01:30:00.000 : :01:30:00.000000000
01:35:00.000 : :01:35:00.000000000
01:40:00.000 : :01:40:00.000000000



Скачать За.нас.двоих.A.nous.deux.(Клод.Лелуш).[1979.мелодрама.криминал.DVDRip-AVC].[MVO]+[Оригинал]+[Sub].torrent без регистрации
Золото ЗОЛОТАЯ РАЗДАЧА! СКАЧАННОЕ НЕ ЗАСЧИТЫВАЕТСЯ! Золото
Дата: Зарегистрирован   [ Тип: внутренний ] Как тут cкачать?
MAGNET ссылка
MAGNET ссылка


Скачать .torrent

15 KB

Статус: проверено DHT
Скачан: торрент - 105 раз, раздача полностью - 0 раз
Размер: 1,45 GB
Оценка:  - (Голосов: 0)
Поблагодарили: 1
Поделиться ссылкой на эту раздачу с друзьями:
В контактеFacebookОдноклассникиTwitterLivejournalМой МирLiveinternet
 

 
Показать сообщения:    


Вы не можете начинать темы
Вы не можете отвечать на сообщения
Вы не можете редактировать свои сообщения
Вы не можете удалять свои сообщения
Вы не можете голосовать в опросах
Вы не можете прикреплять файлы к сообщениям
Вы можете скачивать файлы