Loading...
Error

Скачать Любовники / The Affair (сезон 01) (Марк Майлод) [2014, драма, HDTV] [720p] [MVO (Amedia)]+[Eng] торрент без регистрации

 
Статистика раздачи
Размер:  12,15 GB   |    Скачан:  5346 раз
Сидов:  1  [  0 KB/s  ]  
 
Автор Сообщение

МихаНЕзатор

[] 

Информация о фильме
Название: Любовники
Оригинальное название: The Affair
Год выхода: 2014
Жанр: драма
Режиссер: Марк Майлод

В ролях: Доминик Уэст, Рут Уилсон, Мора Тирни, Джулия Голден Теллес, Джошуа Джексон, Даррен Голдштейн, Майкл Годер, Лавиния Джонс Райт, Джэдон Сэнд, Никки Робинсон и др.

О фильме: Любовная драма о запретной страсти со всеми вытекающими последствиями. Добропорядочный семьянин приезжает на отдых с семьей в приморский городок, где себе на беду встречает официантку закусочной. Оба женаты — и единственная измена запускает механизм, который разрушит два брака и жизни четырех людей.



Релиз от: Amedia (перевод)

Страна: USA
Студия: Amedia (перевод)
Продолжительность: ~ 00:59:00 серия
Перевод: профессиональный (многоголосый, закадровый) - Amedia

Файл
Кодек: h.264 / AC3
Качество: HDTV 720p
Видео: AVC, 1280x720 (16:9), 23.976 fps, 3 251 Kbps (0.147 bit/pixel)
Звук:
Аудио #1: AC-3, 48.0 KHz, 2 ch, 192 Kbps, CBR (Russian)
Аудио #2: AC-3, 48.0 KHz, 6 ch, 384 Kbps, CBR (English)
Субтитры: : Нет

АНОНСЫ ПОПУЛЯРНЫХ РАЗДАЧ


29.12.2014 г. торрент обновлён, добавлена 10-я серия!
General
Unique ID : 33820179074371329051267266482774067074 (0x1971879144FF9081927BC466CDA9C782)
Complete name : /The Affair S01/The.Affair.S01E01.mkv
Format : Matroska
Format version : Version 4 / Version 2
File size : 1.62 GiB
Duration : 59mn 24s
Overall bit rate : 3 905 Kbps
Encoded date : UTC 2014-11-26 17:06:20
Writing application : mkvmerge v7.3.0 ('Nouages') 64bit built on Oct 22 2014 19:46:47
Writing library : libebml v1.3.0 + libmatroska v1.4.1

Video
ID : 1
Format : AVC
Format/Info : Advanced Video Codec
Format profile : High@L4.1
Format settings, CABAC : Yes
Format settings, ReFrames : 5 frames
Codec ID : V_MPEG4/ISO/AVC
Duration : 59mn 24s
Bit rate : 3 251 Kbps
Width : 1 280 pixels
Height : 720 pixels
Display aspect ratio : 16:9
Frame rate mode : Constant
Frame rate : 23.976 fps
Color space : YUV
Chroma subsampling : 4:2:0
Bit depth : 8 bits
Scan type : Progressive
Bits/(Pixel*Frame) : 0.147
Stream size : 1.35 GiB (83%)
Writing library : x264 core 142 r2479 dd79a61
Encoding settings : cabac=1 / ref=5 / deblock=1:0:0 / analyse=0x3:0x113 / me=umh / subme=8 / psy=1 / psy_rd=1.00:0.00 / mixed_ref=1 / me_range=16 / chroma_me=1 / trellis=1 / 8x8dct=1 / cqm=0 / deadzone=21,11 / fast_pskip=1 / chroma_qp_offset=-2 / threads=18 / lookahead_threads=3 / sliced_threads=0 / nr=0 / decimate=1 / interlaced=0 / bluray_compat=0 / constrained_intra=0 / bframes=3 / b_pyramid=2 / b_adapt=2 / b_bias=0 / direct=3 / weightb=1 / open_gop=0 / weightp=2 / keyint=250 / keyint_min=23 / scenecut=40 / intra_refresh=0 / rc_lookahead=50 / rc=crf / mbtree=1 / crf=18.0 / qcomp=0.60 / qpmin=0 / qpmax=69 / qpstep=4 / ip_ratio=1.40 / aq=1:1.00
Language : English
Default : Yes
Forced : No
Matrix coefficients : BT.709

Audio #1
ID : 2
Format : AC-3
Format/Info : Audio Coding 3
Mode extension : CM (complete main)
Format settings, Endianness : Big
Codec ID : A_AC3
Duration : 59mn 24s
Bit rate mode : Constant
Bit rate : 192 Kbps
Channel(s) : 2 channels
Channel positions : Front: L R
Sampling rate : 48.0 KHz
Bit depth : 16 bits
Compression mode : Lossy
Stream size : 81.6 MiB (5%)
Language : Russian
Default : Yes
Forced : No

Audio #2
ID : 3
Format : AC-3
Format/Info : Audio Coding 3
Mode extension : CM (complete main)
Format settings, Endianness : Big
Codec ID : A_AC3
Duration : 59mn 24s
Bit rate mode : Constant
Bit rate : 384 Kbps
Channel(s) : 6 channels
Channel positions : Front: L C R, Side: L R, LFE
Sampling rate : 48.0 KHz
Bit depth : 16 bits
Compression mode : Lossy
Stream size : 163 MiB (10%)
Language : English
Default : No
Forced : No



Скачать Любовники.The.Affair.(сезон.01).(Марк.Майлод).[2014.драма.HDTV].[720p].[MVO.(Amedia)]+[Eng].torrent без регистрации
Золото ЗОЛОТАЯ РАЗДАЧА! СКАЧАННОЕ НЕ ЗАСЧИТЫВАЕТСЯ! Золото
Дата: Зарегистрирован   [ Тип: внутренний ] Как тут cкачать?
MAGNET ссылка
MAGNET ссылка


Скачать .torrent

123 KB

Статус: проверено DHT
Скачан: торрент - 5346 раз, раздача полностью - 63 раз
Размер: 12,15 GB
Оценка:  - (Голосов: 0)
Поблагодарили: 3
Поделиться ссылкой на эту раздачу с друзьями:
В контактеFacebookОдноклассникиTwitterLivejournalМой МирLiveinternet
 

 

МихаНЕзатор

[] 

Раздача обноалена
 
Показать сообщения:    


Вы не можете начинать темы
Вы не можете отвечать на сообщения
Вы не можете редактировать свои сообщения
Вы не можете удалять свои сообщения
Вы не можете голосовать в опросах
Вы не можете прикреплять файлы к сообщениям
Вы можете скачивать файлы