Loading...
Error

Скачать Скорая помощь / Убийца в белом халате / The Ambulance (Ларри Коэн / Larry Cohen) [1990 г., ужасы, боевик, триллер, мелодрама, комедия, DVDRip] 2x[AVO] (А. Гаврилов, Л. Володарский) торрент без регистрации

 
Статистика раздачи
Размер:  1,44 GB   |    Скачан:  103 раза
Сидов:  1  [  0 KB/s  ]  
 
Автор Сообщение

leon030982

[] 

Скорая помощь / Убийца в белом халате / The Ambulance
Год выпуска: 1990
Страна: США
Жанр: ужасы, боевик, триллер, мелодрама, комедия
Продолжительность: 01:31:32
Перевод 1: Авторский (одноголосый, закадровый) [Андрей Гаврилов]
Перевод 2: Авторский (одноголосый, закадровый) [Леонид Володарский]
Cубтитры: нет

Режиссер: Ларри Коэн / Larry Cohen

В ролях: Эрик Робертс, Джеймс Эрл Джоунс, Миган Гэллагер, Ред Баттонс, Джанин Тернер, Эрик Брэден, Ричард Брайт, Джеймс Диксон, Джилл Гэтсби, Мартин Бартер

Описание: Молодую девушку прямо на улице забирает машина «Скорой помощи» с диагнозом «диабет». Находившийся рядом молодой человек хочет поехать вместе с ними, но ему отказывают. Когда парень все-таки решает найти понравившуюся ему девушку и приезжает в указанную больницу, девушки там не оказывается. Машины «Скорой помощи» с указанными номерами и такого цвета в больнице просто нет…



Качество: DVDRip [спасибо smolik36]
Формат: AVI
Видео кодек: XviD
Аудио кодек: AC3
Видео : 720x528 (1.36:1), 25 fps, XviD build 50 ~1848 kbps avg, 0.19 bit/pixel
Аудио 1: 48 kHz, AC3 Dolby Digital, 2/0 (L,R) ch, ~192 kbps Гаврилов
Аудио 2: 48 kHz, AC3 Dolby Digital, 2/0 (L,R) ch, ~192 kbps Володарский
за дорожки спасибо budulai-8
Полное имя : Скорая помощь 1990.avi
Формат : AVI
Формат/Информация : Audio Video Interleave
Размер файла : 1,44 Гбайт
Продолжительность : 1 ч. 31 м.
Общий поток : 2248 Кбит/сек
Программа кодирования : VirtualDubMod 1.5.10.2 (build 2540/release)
Библиотека кодирования : VirtualDubMod build 2540/release
Видео
Идентификатор : 0
Формат : MPEG-4 Visual
Профиль формата : Advanced Simple@L5
Параметр BVOP формата : 2
Параметр QPel формата : Нет
Параметр GMC формата : Без точки перехода
Параметр матрицы формата : Выборочная
Идентификатор кодека : XVID
Идентификатор кодека/Подсказка : XviD
Продолжительность : 1 ч. 31 м.
Битрейт : 1850 Кбит/сек
Ширина : 720 пикселей
Высота : 528 пикселей
Соотношение сторон : 4:3
Частота кадров : 25,000 кадров/сек
Цветовое пространство : YUV
Субдискретизация насыщенности : 4:2:0
Битовая глубина : 8 бит
Тип развёртки : Прогрессивная
Метод сжатия : С потерями
Бит/(Пиксели*Кадры) : 0.195
Размер потока : 1,18 Гбайт (82%)
Библиотека кодирования : XviD 1.2.1 (UTC 2008-12-04)
Аудио #1
Идентификатор : 1
Формат : AC-3
Формат/Информация : Audio Coding 3
Профиль формата : Dolby Digital
Расширение режима : CM (complete main)
Параметр Endianness формата : Big
Идентификатор кодека : 2000
Продолжительность : 1 ч. 31 м.
Вид битрейта : Постоянный
Битрейт : 192 Кбит/сек
Каналы : 2 канала
Расположение каналов : Front: L R
Частота : 48,0 КГц
Битовая глубина : 16 бит
Метод сжатия : С потерями
Размер потока : 126 Мбайт (9%)
Выравнивание : Разделение по промежуткам
Продолжительность промежутка : 40 мс. (1,00 видеокадр)
Время предзагрузки промежутка : 500 мс.
Аудио #2
Идентификатор : 2
Формат : AC-3
Формат/Информация : Audio Coding 3
Профиль формата : Dolby Digital
Расширение режима : CM (complete main)
Параметр Endianness формата : Big
Идентификатор кодека : 2000
Продолжительность : 1 ч. 31 м.
Вид битрейта : Постоянный
Битрейт : 192 Кбит/сек
Каналы : 2 канала
Расположение каналов : Front: L R
Частота : 48,0 КГц
Битовая глубина : 16 бит
Метод сжатия : С потерями
Размер потока : 126 Мбайт (9%)
Выравнивание : Разделение по промежуткам
Продолжительность промежутка : 40 мс. (1,00 видеокадр)
Время предзагрузки промежутка : 500 мс.



Скачать Скорая.помощь.Убийца.в.белом.халате.The.Ambulance.(Ларри.Коэн.Larry.Cohen).[1990.г.ужасы.боевик.триллер.мелодрама.комедия.DVDRip].2x[AVO].(А.Гаврилов.Л.Володарский).torrent без регистрации
Золото ЗОЛОТАЯ РАЗДАЧА! СКАЧАННОЕ НЕ ЗАСЧИТЫВАЕТСЯ! Золото
Дата: Зарегистрирован   [ Тип: внутренний ] Как тут cкачать?
MAGNET ссылка
MAGNET ссылка


Скачать .torrent

15 KB

Статус: проверено DHT
Скачан: торрент - 103 раз, раздача полностью - 10 раз
Размер: 1,44 GB
Оценка:  - (Голосов: 0)
Поблагодарили: 1
Поделиться ссылкой на эту раздачу с друзьями:
В контактеFacebookОдноклассникиTwitterLivejournalМой МирLiveinternet
 

 
Показать сообщения:    


Вы не можете начинать темы
Вы не можете отвечать на сообщения
Вы не можете редактировать свои сообщения
Вы не можете удалять свои сообщения
Вы не можете голосовать в опросах
Вы не можете прикреплять файлы к сообщениям
Вы можете скачивать файлы