Loading...
Error

Скачать Патология / Pathology (Марк Шолерманн) [2008, триллер, криминал, BDRip-AVC] [Dub]+[DVO]x2+[AVO]x2+[VO]+Sub]x2 торрент без регистрации

 
Статистика раздачи
Размер:  3,23 GB   |    Скачан:  116 раз
Сидов:  1  [  0 KB/s  ]  
 
Автор Сообщение

Marsianka

[] 

Информация о фильме
Название: Патология
Оригинальное название: Pathology
Год выхода: 2008
Жанр: триллер, криминал
Режиссер: Марк Шолерманн
В ролях: Майло Вентимилья, Майкл Уэстон, Алисса Милано, Лоурен Ли Смит, Джонни Витуорт, Джон Де Ланси, Мей Меланкон, Кейр О`Доннелл, Роланд Льюис, Дэн Каллахан, Ларри Дрэйк, Алан Блюменфилд, Гари Бакнер, Джеб Буррис, Эвридайс Дэвис, Джарвис В. Джордж, Энн Джирард, Эрик Калдор, Кейт Моррис, Кейт Маллиган, Дон Смит, Дебора Поллак, Шерил Старбак, Сэм Уитвер, Мэри Грэйс

О фильме: Молодой и талантливый доктор Грей, закончив Гарвард с отличием, мечтает стать патологоанатомом. И где как не в лучшей клинике города, он может поднабраться опыта и осуществить свою мечту. Рассудив таким образом, Грей поступает в интернатуру в огромный госпиталь. Здесь он заводит новые знакомства, благодаря которым у него появляются и новые увлечения. Например, вечерами он стал любить собираться с коллегами в морге и глумиться над трупами бомжей и наркоманов. Однако, вскоре Грей понимает, что его жизнь и он сам изменились не в лучшую сторону. Но осознав свое нежелание участвовать в проказах своих новоиспеченных товарищей, он вскоре понял, что на месте «неизвестного трупа» в морге может оказаться он сам...



Страна: США
Студия: Camelot Pictures, Metro-Goldwyn-Mayer (MGM), Lakeshore Entertainment
Продолжительность: 01:34:49
Перевод: Дублированный, профессиональный двухголосый, авторский одноголосый (Дольский), (Макашов), любительский одноголосый (sf@irat)

Файл
Кодек: MPEG-4 AVC
Качество: BDRip-AVC
Видео: 1800 Кбит/с, 1024x436, 23.976 кадр/с

Семпл
Аудио #1: Русский (AC3, 6 ch, 384 Кбит/с) / Дублированный (Пифагор)
Аудио #2: Русский (AC3, 6 ch, 448 Кбит/с) / Профессиональный двухголосый (Супербит)
Аудио #3: Русский (AC3, 6 ch, 448 Кбит/с) / Профессиональный двухголосый
Аудио #4: Русский (AC3, 6 ch, 448 Кбит/с) / Авторский одноголосый (Дольский)
Аудио #5: Русский (AC3, 6 ch, 448 Кбит/с) / Авторский одноголосый (Макашов)
Аудио #6: Русский (AC3, 6 ch, 448 Кбит/с) / Любительский одноголосый (sf@irat)
Аудио #7: Английский (AC3, 6 ch, 448 Кбит/с)
Субтитры: Русские, английские
Общее
Уникальный идентификатор : 253978519335358388115753579969052679556 (0xBF127BCAB69CBC17AC956C8557A81D84)
Полное имя : D:Мои РипыPathology.2008.BDRip.AVC.MediaClub.mkv
Формат : Matroska
Версия формата : Version 4 / Version 2
Размер файла : 3,23 Гбайт
Продолжительность : 1 ч. 34 м.
Общий поток : 4874 Кбит/сек
Название фильма : = MediaClub = rip by krakatuq
Дата кодирования : UTC 2014-11-28 11:04:47
Программа кодирования : mkvmerge v6.6.0 ('The Edge Of The In Between') built on Dec 1 2013 17:55:00
Библиотека кодирования : libebml v1.3.0 + libmatroska v1.4.1

Видео
Идентификатор : 1
Формат : AVC
Формат/Информация : Advanced Video Codec
Профиль формата : High@L4.1
Параметр CABAC формата : Да
Параметр ReFrames формата : 9 кадров
Идентификатор кодека : V_MPEG4/ISO/AVC
Продолжительность : 1 ч. 34 м.
Битрейт : 1705 Кбит/сек
Номинальный битрейт : 1800 Кбит/сек
Ширина : 1024 пикселя
Высота : 436 пикселей
Соотношение сторон : 2,35:1
Режим частоты кадров : Постоянный
Частота кадров : 23,976 кадра/сек
Цветовое пространство : YUV
Субдискретизация насыщенности : 4:2:0
Битовая глубина : 8 бит
Тип развёртки : Прогрессивная
Бит/(Пиксели*Кадры) : 0.159
Размер потока : 1,13 Гбайт (35%)
Заголовок : Pathology.2008.BDRip.AVC.MediaClub
Библиотека кодирования : x264 core 142 r2409+42 04be48a tMod [8-bit@4:2:0 X86]
Настройки программы : cabac=1 / ref=9 / deblock=1:-2:-2 / analyse=0x3:0x133 / me=umh / subme=11 / psy=1 / fade_compensate=0.00 / psy_rd=1.00:0.15 / mixed_ref=1 / me_range=32 / chroma_me=1 / trellis=2 / 8x8dct=1 / cqm=0 / deadzone=21,11 / fast_pskip=0 / chroma_qp_offset=-3 / threads=3 / lookahead_threads=1 / sliced_threads=0 / nr=0 / decimate=0 / interlaced=0 / bluray_compat=0 / constrained_intra=0 / fgo=0 / bframes=8 / b_pyramid=2 / b_adapt=2 / b_bias=0 / direct=3 / weightb=1 / open_gop=0 / weightp=2 / keyint=240 / keyint_min=23 / scenecut=40 / intra_refresh=0 / rc=2pass / mbtree=0 / bitrate=1800 / ratetol=1.0 / qcomp=0.60 / qpmin=0:0:0 / qpmax=69:69:69 / qpstep=4 / cplxblur=20.0 / qblur=0.5 / ip_ratio=1.40 / pb_ratio=1.30 / aq=1:1.00 / aq-sensitivity=10.00 / aq-factor=1.00:1.00:1.00 / aq2=0 / aq3=0
Язык : English
Default : Да
Forced : Нет

Аудио #1
Идентификатор : 2
Формат : AC-3
Формат/Информация : Audio Coding 3
Расширение режима : CM (complete main)
Параметр Endianness формата : Big
Идентификатор кодека : A_AC3
Продолжительность : 1 ч. 34 м.
Вид битрейта : Постоянный
Битрейт : 384 Кбит/сек
Каналы : 6 каналов
Расположение каналов : Front: L C R, Side: L R, LFE
Частота : 48,0 КГц
Битовая глубина : 16 бит
Метод сжатия : С потерями
Размер потока : 260 Мбайт (8%)
Заголовок : TRACK_01_DUB_RUS
Язык : Russian
Default : Да
Forced : Да

Аудио #2
Идентификатор : 3
Формат : AC-3
Формат/Информация : Audio Coding 3
Расширение режима : CM (complete main)
Параметр Endianness формата : Big
Идентификатор кодека : A_AC3
Продолжительность : 1 ч. 34 м.
Вид битрейта : Постоянный
Битрейт : 448 Кбит/сек
Каналы : 6 каналов
Расположение каналов : Front: L C R, Side: L R, LFE
Частота : 48,0 КГц
Битовая глубина : 16 бит
Метод сжатия : С потерями
Размер потока : 304 Мбайт (9%)
Заголовок : TRACK_02_DVO_RUS_Супербит
Язык : Russian
Default : Нет
Forced : Нет

Аудио #3
Идентификатор : 4
Формат : AC-3
Формат/Информация : Audio Coding 3
Расширение режима : CM (complete main)
Параметр Endianness формата : Big
Идентификатор кодека : A_AC3
Продолжительность : 1 ч. 34 м.
Вид битрейта : Постоянный
Битрейт : 448 Кбит/сек
Каналы : 6 каналов
Расположение каналов : Front: L C R, Side: L R, LFE
Частота : 48,0 КГц
Битовая глубина : 16 бит
Метод сжатия : С потерями
Размер потока : 304 Мбайт (9%)
Заголовок : TRACK_03_DVO_RUS
Язык : Russian
Default : Нет
Forced : Нет

Аудио #4
Идентификатор : 5
Формат : AC-3
Формат/Информация : Audio Coding 3
Расширение режима : CM (complete main)
Параметр Endianness формата : Big
Идентификатор кодека : A_AC3
Продолжительность : 1 ч. 34 м.
Вид битрейта : Постоянный
Битрейт : 448 Кбит/сек
Каналы : 6 каналов
Расположение каналов : Front: L C R, Side: L R, LFE
Частота : 48,0 КГц
Битовая глубина : 16 бит
Метод сжатия : С потерями
Размер потока : 304 Мбайт (9%)
Заголовок : TRACK_04_AVO_RUS_DOLSKIJ
Язык : Russian
Default : Нет
Forced : Нет

Аудио #5
Идентификатор : 6
Формат : AC-3
Формат/Информация : Audio Coding 3
Расширение режима : CM (complete main)
Параметр Endianness формата : Big
Идентификатор кодека : A_AC3
Продолжительность : 1 ч. 34 м.
Вид битрейта : Постоянный
Битрейт : 448 Кбит/сек
Каналы : 6 каналов
Расположение каналов : Front: L C R, Side: L R, LFE
Частота : 48,0 КГц
Битовая глубина : 16 бит
Метод сжатия : С потерями
Размер потока : 304 Мбайт (9%)
Заголовок : TRACK_05_AVO_RUS_ MAKASHOV
Язык : Russian
Default : Нет
Forced : Нет

Аудио #6
Идентификатор : 7
Формат : AC-3
Формат/Информация : Audio Coding 3
Расширение режима : CM (complete main)
Параметр Endianness формата : Big
Идентификатор кодека : A_AC3
Продолжительность : 1 ч. 34 м.
Вид битрейта : Постоянный
Битрейт : 448 Кбит/сек
Каналы : 6 каналов
Расположение каналов : Front: L C R, Side: L R, LFE
Частота : 48,0 КГц
Битовая глубина : 16 бит
Метод сжатия : С потерями
Размер потока : 304 Мбайт (9%)
Заголовок : TRACK_06_VO_RUS_ sf@irat
Язык : Russian
Default : Нет
Forced : Нет

Аудио #7
Идентификатор : 8
Формат : AC-3
Формат/Информация : Audio Coding 3
Расширение режима : CM (complete main)
Параметр Endianness формата : Big
Идентификатор кодека : A_AC3
Продолжительность : 1 ч. 34 м.
Вид битрейта : Постоянный
Битрейт : 448 Кбит/сек
Каналы : 6 каналов
Расположение каналов : Front: L C R, Side: L R, LFE
Частота : 48,0 КГц
Битовая глубина : 16 бит
Метод сжатия : С потерями
Размер потока : 304 Мбайт (9%)
Заголовок : TRACK_07_ORIGINAL_ENG
Язык : English
Default : Нет
Forced : Нет

Текст #1
Идентификатор : 9
Формат : UTF-8
Идентификатор кодека : S_TEXT/UTF8
Идентификатор кодека/Информация : UTF-8 Plain Text
Заголовок : TEXT_01_SUB_RUS
Язык : Russian
Default : Нет
Forced : Нет

Текст #2
Идентификатор : 10
Формат : UTF-8
Идентификатор кодека : S_TEXT/UTF8
Идентификатор кодека/Информация : UTF-8 Plain Text
Заголовок : TEXT_02_SUB_ENG
Язык : English
Default : Нет
Forced : Нет

Меню
00:00:00.000 : :Chapter 01
00:03:43.597 : :Chapter 02
00:09:29.527 : :Chapter 03
00:14:07.846 : :Chapter 04
00:19:01.265 : :Chapter 05
00:24:35.514 : :Chapter 06
00:28:56.693 : :Chapter 07
00:33:11.072 : :Chapter 08
00:37:45.262 : :Chapter 09
00:42:40.391 : :Chapter 10
00:47:16.750 : :Chapter 11
00:53:06.224 : :Chapter 12
00:57:14.514 : :Chapter 13
01:03:14.874 : :Chapter 14
01:07:38.095 : :Chapter 15
01:11:43.256 : :Chapter 16
01:15:33.320 : :Chapter 17
01:18:58.108 : :Chapter 18
01:24:01.036 : :Chapter 19
01:28:42.108 : :Chapter 20

x264 log
x264 [info]: frame I:1001 Avg QP:14.50 size: 55005
x264 [info]: frame P:28809 Avg QP:17.35 size: 18683
x264 [info]: frame B:106605 Avg QP:19.17 size: 6434
Релиз от: | Автор рипа:



Скачать Патология.Pathology.(Марк.Шолерманн).[2008.триллер.криминал.BDRip-AVC].[Dub]+[DVO]x2+[AVO]x2+[VO]+Sub]x2.torrent без регистрации
Золото ЗОЛОТАЯ РАЗДАЧА! СКАЧАННОЕ НЕ ЗАСЧИТЫВАЕТСЯ! Золото
Дата: Зарегистрирован   [ Тип: внутренний ] Как тут cкачать?
MAGNET ссылка
MAGNET ссылка


Скачать .torrent

17 KB

Статус: проверено DHT
Скачан: торрент - 116 раз, раздача полностью - 61 раз
Размер: 3,23 GB
Оценка:  - (Голосов: 0)
Поблагодарили: 1
Поделиться ссылкой на эту раздачу с друзьями:
В контактеFacebookОдноклассникиTwitterLivejournalМой МирLiveinternet
 

 
Показать сообщения:    


Вы не можете начинать темы
Вы не можете отвечать на сообщения
Вы не можете редактировать свои сообщения
Вы не можете удалять свои сообщения
Вы не можете голосовать в опросах
Вы не можете прикреплять файлы к сообщениям
Вы можете скачивать файлы